<?xml version="1.0" standalone="no"?><!DOCTYPE svg PUBLIC "-//W3C//DTD SVG 1.1//EN" "http://www.w3.org/Graphics/SVG/1.1/DTD/svg11.dtd" ><svg xmlns="http://www.w3.org/2000/svg"><metadata></metadata><defs><font id="1.000;ADBO;SourceHanSerifTW-Medium;ADOBE" horiz-adv-x="1000"><font-face font-family="Source Han Serif TW Medium" font-weight="500" font-stretch="normal" units-per-em="1000" panose-1="2 2 5 0 0 0 0 0 0 0" ascent="1151" descent="-286" x-height="0" bbox="-95 -234 988 900" underline-thickness="50" underline-position="-125" unicode-range="U+0025-ff0c" /><missing-glyph horiz-adv-x="1000" d="M100 880 l800 0 l0 -1000 l-800 0 l0 1000 ZM818 830 l-636 0 l318 -409 l318 409 ZM850 -29 l0 818 l-318 -409 l318 -409 ZM818 -70 l-318 409 l-318 -409 l636 0 ZM150 -29 l318 409 l-318 409 l0 -818 Z" /><glyph glyph-name="" unicode="%" d="M208 -3 l511 736 l30 -23 l-511 -737 l-30 24 ZM152 495 q0 -194 77 -194 q75 0 75 194 q0 194 -75 194 q-77 0 -77 -194 ZM229 723 q64 0 105 -54 q46 -61 46 -174 q0 -113 -46 -173 q-41 -53 -105 -53 q-64 0 -105 53 q-47 60 -47 173 q0 113 47 174 q41 54 105 54 ZM638 216 q0 -194 77 -194 q76 0 76 194 q0 194 -76 194 q-77 0 -77 -194 ZM715 443 q64 0 105 -53 q46 -61 46 -174 q0 -113 -46 -173 q-41 -53 -105 -53 q-64 0 -105 53 q-47 60 -47 173 q0 113 47 174 q41 53 105 53 Z" /><glyph glyph-name="" unicode="-­&#x2011;" d="M44 307 l255 0 l0 -64 l-255 0 l0 64 Z" /><glyph glyph-name="" unicode="/" d="M298 777 l58 0 l-292 -952 l-60 0 l294 952 Z" /><glyph glyph-name="" unicode="0" d="M142 372 q0 -344 134 -344 q130 0 130 344 q0 332 -130 332 q-134 0 -134 -332 ZM276 748 q96 0 157 -85 q71 -100 71 -291 q0 -197 -71 -299 q-60 -87 -157 -87 q-99 0 -160 87 q-71 101 -71 299 q0 192 71 291 q62 85 160 85 Z" /><glyph glyph-name="" unicode="1" d="M486 34 l0 -34 l-404 0 l0 34 l156 22 q2 116 2 175 l0 430 l-146 -14 l0 38 l225 59 l15 -11 l-4 -158 l0 -344 q0 -59 2 -175 l154 -22 Z" /><glyph glyph-name="" unicode="2" d="M504 85 l0 -85 l-450 0 l0 68 q76 85 166 188 q157 179 157 293 q0 71 -36 113 q-37 43 -98 43 q-27 0 -59 -7 l-22 -80 q-18 -69 -60 -69 q-35 0 -53 34 q11 79 75 124 q59 41 145 41 q102 0 155 -54 q49 -51 49 -140 q0 -68 -48 -139 q-42 -61 -172 -197 l-129 -133 l380 0 Z" /><glyph glyph-name="" unicode="3" d="M181 635 q-18 -66 -62 -66 q-37 0 -51 38 q14 69 72 106 q54 35 133 35 q95 0 151 -49 q56 -49 56 -130 q0 -134 -155 -182 q178 -32 178 -193 q0 -91 -68 -149 q-68 -59 -177 -59 q-181 0 -210 152 q18 35 53 35 q41 0 60 -72 l18 -65 q29 -8 63 -8 q77 0 122 47 q43 45 43 121 q0 78 -43 121 q-44 45 -127 45 l-52 0 l0 49 l43 0 q74 0 117 40 q43 40 43 113 q0 141 -136 141 q-29 0 -53 -6 l-18 -64 Z" /><glyph glyph-name="" unicode="4" d="M327 292 l0 349 l-242 -349 l242 0 ZM531 228 l-116 0 l0 -228 l-88 0 l0 228 l-297 0 l0 53 l324 463 l61 0 l0 -452 l116 0 l0 -64 Z" /><glyph glyph-name="" unicode="5" d="M152 440 q52 16 111 16 q108 0 173 -60 q66 -62 66 -170 q0 -108 -70 -174 q-70 -66 -186 -66 q-171 0 -204 152 q14 35 52 35 q42 0 59 -69 l18 -66 q33 -10 69 -10 q79 0 123 51 q43 50 43 138 q0 86 -47 134 q-45 46 -125 46 q-56 0 -105 -14 l-28 8 l23 342 l358 0 l0 -86 l-316 0 l-14 -207 Z" /><glyph glyph-name="" unicode="6" d="M140 314 q0 -286 144 -286 q58 0 92 46 q35 48 35 138 q0 177 -130 177 q-83 0 -141 -53 l0 -22 ZM472 719 q-300 -70 -329 -343 q70 72 163 72 q90 0 144 -60 q55 -60 55 -160 q0 -113 -62 -179 q-61 -63 -162 -63 q-110 0 -173 83 q-64 84 -64 231 q0 175 109 297 q115 128 313 151 l6 -29 Z" /><glyph glyph-name="" unicode="7" d="M500 733 l0 -54 l-259 -679 l-84 0 l-10 10 l292 637 l-384 0 l0 86 l445 0 Z" /><glyph glyph-name="" unicode="8" d="M277 27 q60 0 97 38 q36 38 36 100 q0 100 -168 178 q-106 -66 -106 -167 q0 -67 39 -108 q39 -41 102 -41 ZM155 586 q0 -107 144 -177 q88 68 88 170 q0 52 -29 88 q-32 38 -83 38 q-50 0 -84 -32 q-36 -34 -36 -87 ZM333 393 q165 -80 165 -213 q0 -86 -64 -140 q-63 -54 -160 -54 q-103 0 -163 47 q-62 48 -62 133 q0 118 159 194 q-136 75 -136 206 q0 82 60 133 q57 49 145 49 q86 0 138 -48 q50 -48 50 -123 q0 -109 -132 -184 Z" /><glyph glyph-name="" unicode="9" d="M277 351 q71 0 120 45 q2 34 2 52 q0 129 -38 195 q-36 62 -99 62 q-58 0 -94 -45 q-40 -49 -40 -135 q0 -86 43 -132 q40 -42 106 -42 ZM87 14 q265 90 305 334 q-58 -55 -146 -55 q-90 0 -150 59 q-62 62 -62 162 q0 105 65 170 q64 64 167 64 q106 0 168 -79 q61 -79 61 -213 q0 -173 -95 -295 q-103 -133 -305 -181 l-8 34 Z" /><glyph glyph-name="" unicode=":" d="M164 390 q-30 0 -52 22 q-22 22 -22 51 q0 32 22 54 q21 22 52 22 q31 0 53 -22 q22 -22 22 -54 q0 -30 -22 -51 q-22 -22 -53 -22 ZM164 -14 q-30 0 -52 22 q-22 22 -22 51 q0 32 22 54 q21 22 52 22 q31 0 53 -22 q22 -22 22 -54 q0 -30 -22 -51 q-22 -22 -53 -22 Z" /><glyph glyph-name="" unicode="a" d="M448 286 l-114 340 l-112 -340 l226 0 ZM716 38 l0 -38 l-298 0 l0 38 l108 13 l-64 192 l-254 0 l-63 -191 l107 -14 l0 -38 l-244 0 l0 38 l89 14 l233 686 l64 0 l236 -690 l86 -10 Z" /><glyph glyph-name="" unicode="l" d="M600 206 l-8 -206 l-543 0 l0 38 l102 11 q2 97 2 287 l0 57 q0 196 -2 291 l-102 11 l0 38 l309 0 l0 -38 l-103 -11 q-2 -96 -2 -290 l0 -73 q0 -178 2 -274 l252 0 l36 159 l57 0 Z" /><glyph glyph-name="" unicode="n" d="M761 695 l-92 -13 l-1 -689 l-39 0 l-447 614 l2 -554 l117 -15 l0 -38 l-259 0 l0 38 l92 13 l2 620 l-11 14 l-78 10 l0 38 l169 0 l405 -560 l-2 508 l-117 14 l0 38 l259 0 l0 -38 Z" /><glyph glyph-name="" unicode="q" d="M166 367 q0 -141 54 -233 q60 -103 168 -103 q107 0 167 103 q52 92 52 233 q0 141 -52 232 q-60 103 -167 103 q-108 0 -168 -103 q-54 -92 -54 -232 ZM680 -198 q-57 -36 -134 -36 q-99 0 -157 67 q-54 61 -56 156 q-120 20 -197 115 q-83 104 -83 263 q0 173 103 282 q96 101 232 101 q136 0 230 -99 q103 -107 103 -284 q0 -159 -87 -265 q-81 -98 -204 -115 q1 -80 43 -125 q41 -44 112 -44 q31 0 84 14 l11 -30 Z" /><glyph glyph-name="" unicode="t" d="M383 685 q-2 -96 -2 -292 l0 -54 q0 -193 2 -289 l113 -12 l0 -38 l-330 0 l0 38 l113 12 q2 95 2 289 l0 54 q0 196 -2 292 l-172 0 l-30 -147 l-55 0 l9 195 l601 0 l7 -195 l-53 0 l-31 147 l-172 0 Z" /><glyph glyph-name="" unicode="u" d="M760 695 l-98 -13 l-1 -385 q0 -313 -257 -313 q-267 0 -267 295 l0 115 q0 195 -1 291 l-92 10 l0 38 l306 0 l0 -38 l-111 -12 q-2 -95 -2 -289 l0 -90 q0 -249 185 -249 q98 0 144 61 q48 63 48 207 l-1 357 l-115 15 l0 38 l262 0 l0 -38 Z" /><glyph glyph-name="" unicode="a" d="M357 288 q-52 -15 -101 -33 q-113 -44 -113 -120 q0 -85 89 -85 q44 0 125 64 l0 174 ZM551 44 q-34 -56 -94 -56 q-83 0 -98 86 q-89 -88 -164 -88 q-63 0 -102 34 q-43 36 -43 100 q0 53 37 89 q41 40 144 77 q51 19 126 36 l0 34 q0 79 -25 109 q-23 27 -80 27 q-27 0 -62 -9 l-21 -75 q-13 -51 -55 -51 q-44 0 -49 42 q14 63 71 99 q56 36 141 36 q88 0 128 -43 q42 -45 42 -145 l0 -238 q0 -70 40 -70 q22 0 44 27 l20 -21 Z" /><glyph glyph-name="" unicode="&#x3010;" d="M965 -85 l-343 0 l0 930 l343 0 l0 -17 q-122 -56 -191 -168 q-72 -118 -72 -280 q0 -162 72 -280 q69 -112 191 -168 l0 -17 Z" /><glyph glyph-name="" unicode="&#x3011;" d="M35 -68 q122 56 191 168 q72 118 72 280 q0 162 -72 280 q-69 112 -191 168 l0 17 l343 0 l0 -930 l-343 0 l0 17 Z" /><glyph glyph-name="" unicode="&#x2f00;&#x4e00;" d="M767 428 l69 93 q78 -65 126 -110 q-4 -16 -31 -16 l-877 0 l-10 33 l723 0 Z" /><glyph glyph-name="" unicode="&#x4e03;" d="M844 628 q73 -39 117 -67 q0 -16 -23 -22 l-464 -83 l0 -374 q0 -24 14 -33 q14 -9 55 -9 l138 0 q95 0 122 3 q19 0 32 3 q17 2 34 8 l11 0 l5 -2 q43 -15 43 -36 q0 -32 -49 -43 q-53 -12 -206 -12 l-139 0 q-81 0 -110 20 q-32 21 -32 80 l0 380 l-341 -60 l-12 27 l353 63 l0 352 l118 -13 q-4 -24 -36 -28 l0 -296 l324 57 l46 85 Z" /><glyph glyph-name="" unicode="&#x4e08;" d="M651 592 q-10 -302 -127 -438 q173 -110 446 -151 l-2 -11 q-62 -10 -81 -71 q-256 53 -414 183 q-139 -118 -428 -186 l-9 19 q268 81 390 209 q-145 145 -200 386 l17 10 q61 -216 224 -347 q93 131 100 397 l-509 0 l-9 29 l519 0 l0 219 l123 -12 q-3 -25 -36 -29 l-3 -178 l145 0 l57 71 q63 -49 103 -84 q-4 -16 -28 -16 l-278 0 Z" /><glyph glyph-name="" unicode="&#x4e09;" d="M799 36 l60 76 q69 -52 111 -90 q-4 -16 -28 -16 l-895 0 l-9 30 l761 0 ZM663 395 l57 71 q66 -49 105 -84 q-3 -16 -26 -16 l-626 0 l-8 29 l498 0 ZM751 722 l60 73 q66 -50 107 -86 q-3 -16 -27 -16 l-789 0 l-9 29 l658 0 Z" /><glyph glyph-name="" unicode="&#x4e0a;" d="M857 73 q66 -50 105 -86 q-4 -16 -27 -16 l-887 0 l-9 30 l388 0 l0 830 l122 -13 q-5 -24 -36 -29 l0 -327 l211 0 l57 73 q65 -50 103 -85 q-4 -16 -27 -16 l-344 0 l0 -433 l287 0 l57 72 Z" /><glyph glyph-name="" unicode="&#x4e0b;" d="M857 823 q68 -51 108 -87 q-3 -16 -27 -16 l-419 0 l0 -194 q275 -67 344 -191 q25 -45 7 -71 q-18 -26 -60 -8 q-76 118 -291 248 l0 -557 q0 -7 -19 -16 q-22 -11 -49 -11 l-15 0 l0 800 l-389 0 l-9 29 l760 0 l59 74 Z" /><glyph glyph-name="" unicode="&#x4e0d;" d="M597 721 q-33 -80 -80 -152 l53 -20 q-5 -15 -31 -19 l0 -590 q0 -5 -22 -13 q-23 -9 -44 -9 l-15 0 l0 561 q-173 -237 -417 -381 l-11 12 q337 261 460 611 l-436 0 l-9 30 l744 0 l58 72 q66 -50 107 -86 q-4 -16 -28 -16 l-329 0 ZM593 472 q278 -91 347 -224 q25 -49 7 -75 q-18 -26 -58 -6 q-71 132 -305 295 l9 10 Z" /><glyph glyph-name="" unicode="&#x4e14;" d="M329 -8 l344 0 l0 236 l-344 0 l0 -236 ZM329 728 l0 -218 l344 0 l0 218 l-344 0 ZM673 481 l-344 0 l0 -225 l344 0 l0 225 ZM870 65 q63 -50 100 -86 q-4 -16 -26 -16 l-897 0 l-9 29 l211 0 l0 802 l90 -37 l323 0 l41 52 l99 -74 q-11 -14 -46 -18 l0 -725 l59 0 l55 73 Z" /><glyph glyph-name="" unicode="&#x4e16;" d="M700 261 l0 256 l-179 0 l0 -256 l179 0 ZM700 163 l0 69 l-179 0 l0 -65 q0 -8 -21 -18 q-22 -10 -43 -10 l-15 0 l0 378 l-169 0 l0 -501 l516 0 l56 73 q64 -50 102 -86 q-4 -16 -27 -16 l-640 0 l-29 -45 l-87 56 q8 11 29 24 l0 495 l-149 0 l-7 30 l156 0 l0 271 l116 -12 q-3 -22 -36 -28 l0 -231 l169 0 l0 291 l116 -12 q-5 -24 -37 -29 l0 -250 l179 0 l0 275 l117 -12 q-5 -23 -37 -28 l0 -235 l45 0 l52 67 q58 -47 94 -81 q-4 -16 -27 -16 l-164 0 l0 -328 q0 -7 -21 -16 q-23 -10 -44 -10 l-15 0 Z" /><glyph glyph-name="" unicode="&#x4e18;" d="M299 24 l276 0 l0 401 l-276 0 l0 -401 ZM867 95 q65 -49 105 -85 q-4 -16 -27 -16 l-899 0 l-9 30 l181 0 l0 710 l107 -30 q269 49 442 123 l92 -88 q-18 -16 -57 2 q-232 -50 -503 -64 l0 -222 l457 0 l54 69 q64 -48 102 -83 q-3 -16 -26 -16 l-229 0 l0 -401 l153 0 l57 71 Z" /><glyph glyph-name="" unicode="&#x4e2d;" d="M811 334 l0 266 l-272 0 l0 -266 l272 0 ZM456 334 l0 266 l-272 0 l0 -266 l272 0 ZM937 605 q-11 -15 -42 -21 l0 -338 q-1 -6 -25 -15 q-25 -9 -45 -9 l-14 0 l0 83 l-272 0 l0 -354 q0 -9 -22 -20 q-23 -12 -45 -12 l-16 0 l0 386 l-272 0 l0 -68 q0 -7 -22 -17 q-24 -11 -47 -11 l-13 0 l0 459 l90 -39 l264 0 l0 213 l120 -13 q-5 -24 -37 -29 l0 -171 l262 0 l44 46 l92 -70 Z" /><glyph glyph-name="" unicode="&#x4e38;" d="M939 52 q29 -13 29 -36 q0 -26 -32 -37 q-35 -12 -122 -12 l-72 0 q-53 0 -72 18 q-17 16 -17 60 l0 552 l-228 0 q-5 -118 -21 -206 q160 -73 176 -172 q5 -37 -15 -53 q-21 -16 -51 4 q-22 86 -118 186 q-63 -282 -333 -434 l-13 16 q164 122 231 299 q52 137 60 360 l-246 0 l-8 29 l255 0 q1 69 1 215 l123 -12 q-5 -24 -36 -29 q-2 -118 -4 -174 l217 0 l44 48 l87 -73 q-11 -13 -41 -17 l0 -518 q0 -22 30 -22 l56 0 q45 0 54 1 q10 1 16 13 q9 19 34 146 l12 0 l4 -152 Z" /><glyph glyph-name="" unicode="&#x4e39;&#xf95e;" d="M419 663 q172 -59 181 -159 q3 -37 -21 -52 q-25 -15 -55 9 q-16 95 -116 195 l11 7 ZM718 380 l0 353 l-404 0 l0 -278 q0 -50 -2 -75 l406 0 ZM890 451 q58 -49 93 -84 q-4 -16 -27 -16 l-157 0 l0 -316 q0 -53 -21 -75 q-28 -29 -108 -37 q-6 42 -27 59 q-32 22 -102 32 l0 16 q125 -10 150 -10 q27 0 27 24 l0 307 l-407 0 q-22 -297 -238 -431 l-13 11 q153 148 169 420 l-191 0 l-9 29 l202 0 q1 24 1 74 l0 346 l96 -39 l381 0 l39 47 l89 -68 q-9 -13 -38 -19 l0 -341 l41 0 l50 71 Z" /><glyph glyph-name="" unicode="&#x4e3b;" d="M347 839 q202 -30 238 -132 q12 -37 -9 -57 q-21 -21 -57 -3 q-45 97 -180 183 l8 9 ZM857 64 q66 -49 106 -85 q-4 -16 -27 -16 l-887 0 l-9 29 l416 0 l0 297 l-300 0 l-7 29 l307 0 l0 256 l-340 0 l-9 30 l652 0 l56 70 q64 -48 104 -84 q-4 -16 -27 -16 l-350 0 l0 -256 l179 0 l54 69 q63 -48 101 -82 q-3 -16 -27 -16 l-307 0 l0 -297 l259 0 l56 72 Z" /><glyph glyph-name="" unicode="&#x4e4b;" d="M358 840 q172 -53 182 -153 q4 -38 -20 -54 q-25 -17 -56 6 q-16 95 -116 193 l10 8 ZM260 139 q61 -63 154 -86 q81 -20 235 -20 q200 0 313 6 l0 -13 q-53 -10 -62 -75 l-280 0 q-147 0 -228 34 q-80 33 -147 123 q-18 23 -35 0 l-48 -69 q-37 -54 -56 -84 q5 -12 -7 -23 l-68 95 q195 127 191 127 l7 0 q332 179 501 416 l-636 0 l-9 30 l654 0 l56 49 l83 -78 q-10 -13 -46 -14 q-209 -267 -577 -414 l5 -4 Z" /><glyph glyph-name="" unicode="&#x4e5d;" d="M946 43 q29 -13 29 -33 q0 -27 -33 -37 q-35 -11 -129 -11 l-80 0 q-56 0 -74 17 q-18 16 -18 62 l0 523 l-207 0 q-14 -222 -83 -357 q-90 -175 -301 -285 l-12 16 q169 117 242 284 q58 134 69 342 l-256 0 l-9 29 l266 0 q2 53 2 245 l123 -12 q-3 -24 -35 -29 q-2 -137 -5 -204 l195 0 l43 49 l86 -74 q-10 -12 -39 -16 l0 -495 q0 -22 31 -22 l66 0 q50 0 60 1 q11 1 18 13 q8 16 35 145 l13 0 l3 -151 Z" /><glyph glyph-name="" unicode="&#x4e5f;" d="M914 43 q47 -14 47 -38 q0 -36 -66 -47 q-68 -11 -292 -11 l-211 0 q-108 0 -146 21 q-43 23 -43 92 l0 398 l-150 -39 l-17 26 l167 43 l0 257 l117 -14 q-4 -23 -37 -27 l0 -195 l200 51 l0 281 l117 -13 q-5 -23 -37 -28 l0 -219 l188 49 l-5 0 l52 53 l84 -89 q-10 -10 -40 -13 q-50 -247 -136 -403 l-12 8 q39 168 55 414 l-186 -49 l0 -390 q0 -7 -21 -17 q-23 -10 -44 -10 l-15 0 l0 396 l-200 -51 l0 -403 q0 -30 21 -41 q22 -12 84 -12 l220 0 q145 0 197 5 q30 2 41 20 q21 37 54 163 l12 0 l2 -168 Z" /><glyph glyph-name="" unicode="&#x4e7e;" d="M475 486 q96 140 130 356 l127 -35 q-5 -22 -37 -22 q-24 -68 -56 -128 l184 0 l49 66 q58 -47 92 -79 q-4 -16 -26 -16 l-316 0 q-59 -93 -134 -152 l-13 10 ZM162 306 l205 0 l0 109 l-205 0 l0 -109 ZM162 551 l0 -107 l205 0 l0 107 l-205 0 ZM424 219 q53 -43 87 -74 q-4 -16 -27 -16 l-181 0 l0 -191 q0 -4 -17 -11 q-22 -9 -48 -9 l-13 0 l0 211 l-180 0 l-8 28 l188 0 l0 119 l-63 0 l0 -24 q0 -6 -19 -15 q-22 -9 -43 -9 l-12 0 l0 387 l79 -35 l58 0 l0 99 l-176 0 l-8 29 l184 0 l0 133 l113 -11 q-3 -21 -34 -26 l0 -96 l64 0 l50 64 q55 -45 90 -77 q-4 -16 -27 -16 l-177 0 l0 -99 l53 0 l40 43 l85 -65 q-9 -12 -39 -19 l0 -277 q-2 -5 -24 -13 q-23 -9 -40 -9 l-12 0 l0 36 l-64 0 l0 -119 l74 0 l47 62 ZM934 29 q36 -12 36 -30 q0 -52 -160 -52 l-145 0 q-85 0 -123 21 q-38 22 -42 73 q-6 50 66 150 q20 28 85 113 q66 87 111 149 l-218 0 l-9 29 l239 0 l36 41 l83 -70 q-16 -10 -45 -13 q-275 -334 -269 -390 q4 -34 91 -34 l138 0 q71 0 80 17 q17 33 36 130 l13 0 l-3 -134 Z" /><glyph glyph-name="" unicode="&#x4e82;" d="M592 771 q-15 -15 -52 -1 q-220 -47 -479 -52 l-4 16 q257 36 451 110 l84 -73 ZM277 727 q108 -35 97 -94 q-4 -22 -23 -28 q-21 -7 -41 11 q-5 55 -45 105 l12 6 ZM130 713 q113 -22 112 -81 q-1 -22 -19 -31 q-20 -9 -42 6 q-12 52 -61 99 l10 7 ZM478 193 q-9 -11 -40 -12 q-18 -36 -51 -72 q48 -35 45 -68 q-3 -33 -41 -20 q-13 19 -45 49 q-69 -51 -156 -78 l-9 17 q78 32 132 88 q-49 36 -93 56 l8 12 q69 -10 116 -31 q17 21 32 51 l-164 0 l-9 29 l175 0 l37 34 l63 -55 ZM533 474 l89 -66 q-11 -15 -43 -20 l0 -372 q0 -47 -17 -65 q-21 -24 -84 -30 q-3 34 -17 49 q-19 17 -70 24 l0 16 q77 -6 96 -6 q20 0 20 19 l0 379 l-150 0 q-44 -45 -103 -91 q98 7 153 12 q-24 36 -49 56 l12 7 q107 -33 112 -94 q1 -22 -14 -32 q-16 -10 -35 4 q-2 9 -13 37 q-92 -27 -185 -50 q-8 -10 -19 -16 l-30 77 q14 3 18 5 q34 19 73 85 l-127 0 l0 -455 q0 -7 -19 -16 q-20 -10 -41 -10 l-12 0 l0 545 l77 -35 l197 0 q-44 54 -135 96 l8 11 q97 -1 146 -36 q46 33 80 62 l-348 0 l-9 29 l301 0 q43 49 90 153 l91 -44 q-10 -20 -38 -14 q-45 -56 -106 -95 l38 0 l43 41 l73 -71 q-7 -7 -40 -9 q-62 -34 -156 -68 q27 -33 6 -55 l101 0 l36 43 ZM935 20 q29 -13 29 -35 q0 -26 -31 -36 q-34 -12 -118 -12 l-68 0 q-51 0 -70 18 q-17 17 -17 61 l0 799 l113 -13 q-2 -23 -35 -28 l0 -734 q0 -27 29 -27 l51 0 q41 0 50 1 q11 1 17 13 q9 20 33 160 l13 0 l4 -167 Z" /><glyph glyph-name="" unicode="&#x4e86;&#xf9ba;" d="M917 727 q-11 -10 -45 -11 q-159 -111 -301 -177 l6 -1 q-5 -22 -34 -26 l0 -478 q0 -54 -23 -76 q-30 -29 -117 -37 q-6 41 -31 58 q-30 21 -116 32 l0 15 q148 -10 176 -10 q27 0 27 23 l0 511 l80 -8 q115 82 217 186 l-638 0 l-9 28 l662 0 l56 52 l90 -81 Z" /><glyph glyph-name="" unicode="&#x4e8b;" d="M742 227 l-204 0 l0 -93 l204 0 l0 93 ZM538 255 l204 0 l0 93 l-204 0 l0 -93 ZM457 498 l0 100 l-200 0 l0 -100 l200 0 ZM538 598 l0 -100 l202 0 l0 100 l-202 0 ZM885 321 q55 -47 87 -78 q-4 -16 -26 -16 l-126 0 l0 -153 q-1 -6 -24 -15 q-24 -10 -43 -10 l-11 0 l0 56 l-204 0 l0 -80 q0 -51 -21 -72 q-28 -28 -107 -35 q-6 38 -28 53 q-29 21 -101 29 l0 16 q125 -9 149 -9 q27 0 27 22 l0 76 l-300 0 l-8 29 l308 0 l0 93 l-407 0 l-9 28 l416 0 l0 93 l-293 0 l-9 29 l302 0 l0 92 l-200 0 l0 -29 q0 -6 -22 -15 q-23 -9 -46 -9 l-11 0 l0 247 l86 -36 l193 0 l0 79 l-406 0 l-8 30 l414 0 l0 106 l117 -13 q-3 -23 -36 -27 l0 -66 l263 0 l55 67 q63 -47 101 -81 q-4 -16 -26 -16 l-393 0 l0 -79 l192 0 l41 44 l90 -67 q-13 -13 -40 -19 l0 -128 q-1 -5 -25 -14 q-25 -9 -43 -9 l-13 0 l0 35 l-202 0 l0 -92 l194 0 l40 44 l88 -67 q-13 -13 -40 -19 l0 -80 l18 0 l47 66 Z" /><glyph glyph-name="" unicode="&#x2f06;&#x4e8c;" d="M780 95 l63 82 q71 -56 114 -95 q-4 -16 -27 -16 l-874 0 l-8 29 l732 0 ZM686 653 l61 79 q70 -54 111 -91 q-4 -16 -27 -16 l-680 0 l-8 28 l543 0 Z" /><glyph glyph-name="" unicode="&#x4e8e;" d="M853 526 q67 -50 107 -86 q-4 -16 -27 -16 l-387 0 l0 -387 q0 -54 -23 -78 q-30 -33 -111 -39 q-3 42 -27 60 q-33 23 -108 32 l0 15 q132 -9 159 -9 q26 0 26 23 l0 383 l-412 0 l-9 28 l421 0 l0 270 l-337 0 l-8 28 l612 0 l57 72 q64 -50 105 -84 q-4 -16 -27 -16 l-318 0 l0 -270 l249 0 l58 74 Z" /><glyph glyph-name="" unicode="&#x4e92;" d="M634 242 l34 275 l-303 0 q-25 -151 -51 -275 l320 0 ZM862 70 q66 -49 106 -85 q-4 -16 -27 -16 l-893 0 l-8 29 l565 0 l27 214 l-314 0 l-36 -40 l-87 58 q13 10 38 21 q55 232 80 473 l-235 0 l-9 29 l696 0 l58 71 q65 -49 105 -84 q-4 -16 -28 -16 l-502 0 q-10 -67 -28 -178 l292 0 l41 47 l86 -73 q-11 -11 -38 -14 l-59 -508 l113 0 l57 72 Z" /><glyph glyph-name="" unicode="&#x4e94;" d="M437 395 q-59 -265 -89 -384 l320 0 l0 384 l-231 0 ZM866 87 q64 -53 101 -89 q-4 -16 -27 -16 l-895 0 l-9 29 l228 0 q40 154 90 384 l-202 0 l-9 30 l217 0 q33 152 54 268 l-307 0 l-8 29 l650 0 l56 73 q64 -50 102 -86 q-4 -16 -28 -16 l-381 0 q-27 -139 -55 -268 l215 0 l44 46 l89 -69 q-12 -13 -42 -21 l0 -370 l62 0 l55 76 Z" /><glyph glyph-name="" unicode="&#x4e9e;" d="M469 245 q-13 -14 -42 -20 l0 -235 l139 0 l0 314 l92 -36 l126 0 l0 239 l-132 0 l-32 -41 l-93 54 q15 15 38 25 l0 182 l-138 0 l0 -260 q0 -4 -17 -11 q-21 -9 -47 -9 l-13 0 l0 62 l-138 0 l0 -241 l128 0 l43 44 l86 -67 ZM859 62 q65 -49 105 -85 q-4 -16 -27 -16 l-889 0 l-8 29 l310 0 l0 249 l-130 0 l-31 -42 l-95 54 q13 13 39 26 l0 301 l90 -40 l127 0 l0 189 l-259 0 l-8 30 l683 0 l58 71 q64 -49 104 -85 q-4 -16 -27 -16 l-257 0 l0 -190 l130 0 l41 45 l91 -69 q-12 -14 -42 -20 l0 -288 q-1 -5 -24 -14 q-25 -9 -44 -9 l-12 0 l0 57 l-139 0 l0 -249 l157 0 l57 72 Z" /><glyph glyph-name="" unicode="&#x4ea4;" d="M386 843 q163 -29 173 -119 q3 -33 -20 -49 q-24 -16 -55 4 q-19 81 -107 156 l9 8 ZM57 630 l-8 30 l759 0 l53 76 q61 -53 97 -90 q-3 -16 -27 -16 l-874 0 ZM609 598 q232 -62 278 -179 q16 -43 -4 -66 q-21 -23 -58 -3 q-54 121 -224 238 l8 10 ZM79 331 q154 110 228 279 l111 -55 q-8 -16 -37 -11 q-110 -148 -293 -226 l-9 13 ZM756 395 q-9 -17 -41 -12 q-55 -124 -162 -226 q170 -111 420 -156 l-2 -12 q-57 -8 -76 -70 q-242 64 -391 195 q-183 -146 -462 -195 l-6 15 q257 72 420 227 q-102 108 -153 255 l16 11 q56 -130 175 -227 q97 106 149 244 l113 -49 Z" /><glyph glyph-name="" unicode="&#x4eab;" d="M51 708 l458 0 q-15 2 -28 11 q-14 65 -77 124 l10 7 q116 -19 138 -80 q8 -23 -3 -41 q-10 -19 -31 -21 l281 0 l53 69 q61 -47 98 -83 q-4 -16 -26 -16 l-864 0 l-9 30 ZM700 472 l0 109 l-404 0 l0 -109 l404 0 ZM700 406 l0 36 l-404 0 l0 -22 q0 -6 -22 -15 q-24 -9 -46 -9 l-12 0 l0 250 l86 -36 l388 0 l41 45 l93 -69 q-12 -14 -43 -20 l0 -138 q-1 -6 -25 -14 q-24 -8 -43 -8 l-13 0 ZM867 254 q61 -46 98 -81 q-4 -16 -28 -16 l-398 0 l0 -127 q0 -53 -21 -74 q-28 -28 -109 -35 q-7 43 -27 57 q-26 20 -100 29 l0 15 q126 -9 150 -9 q24 0 24 20 l0 124 l-410 0 l-9 30 l419 0 l0 85 l80 -8 q110 39 179 73 l-574 0 l-9 29 l623 0 l52 45 l81 -77 q-11 -9 -46 -10 q-87 -36 -274 -75 q-7 -10 -29 -13 l0 -49 l275 0 l53 67 Z" /><glyph glyph-name="" unicode="&#x4eac;" d="M384 169 q-9 -14 -38 -9 q-122 -132 -304 -204 l-9 11 q161 112 247 262 l104 -60 ZM705 330 l0 196 l-408 0 l0 -196 l408 0 ZM544 300 l0 -271 q0 -51 -22 -74 q-27 -29 -104 -35 q-3 41 -24 56 q-25 20 -97 30 l0 14 q117 -8 139 -8 q26 0 26 19 l0 269 l-165 0 l0 -28 q0 -7 -23 -16 q-24 -10 -47 -10 l-12 0 l0 346 l88 -37 l392 0 l43 47 l93 -71 q-11 -15 -43 -21 l0 -230 q-1 -6 -24 -15 q-25 -9 -45 -9 l-14 0 l0 44 l-161 0 ZM648 214 q217 -67 257 -176 q15 -39 -5 -60 q-19 -20 -54 -2 q-54 110 -209 229 l11 9 ZM853 766 q66 -49 105 -85 q-4 -16 -26 -16 l-878 0 l-9 29 l468 0 q-6 1 -11 5 q-28 77 -122 141 l9 9 q136 -10 176 -75 q15 -25 9 -49 q-5 -23 -26 -31 l248 0 l57 72 Z" /><glyph glyph-name="" unicode="&#x4ead;" d="M416 844 q70 -7 106 -35 q30 -23 29 -52 q0 -27 -23 -38 q-24 -13 -51 6 q-9 59 -70 112 l9 7 ZM54 678 l-8 30 l762 0 l53 69 q62 -47 98 -83 q-4 -16 -27 -16 l-878 0 ZM699 478 l0 103 l-400 0 l0 -103 l400 0 ZM699 408 l0 40 l-400 0 l0 -24 q0 -5 -22 -14 q-24 -9 -46 -9 l-11 0 l0 245 l85 -35 l384 0 l41 44 l91 -68 q-10 -14 -42 -20 l0 -137 q-1 -5 -24 -13 q-25 -9 -43 -9 l-13 0 ZM726 304 q54 -40 87 -71 q-4 -16 -26 -16 l-243 0 l0 -186 q0 -52 -22 -76 q-29 -30 -107 -37 q-3 42 -25 60 q-28 21 -104 30 l0 15 q127 -8 152 -8 q25 0 25 18 l0 184 l-268 0 l-8 29 l491 0 l48 58 ZM963 337 q-8 -9 -38 -11 q-40 -47 -100 -92 l-12 8 q18 55 28 98 l-666 0 q0 -83 -52 -116 q-21 -13 -43 -10 q-23 2 -31 22 q-14 35 30 60 q29 15 47 51 q19 38 15 80 l17 1 q11 -32 15 -58 l664 0 l46 45 l80 -78 Z" /><glyph glyph-name="" unicode="&#x4eae;" d="M64 726 l444 0 l-5 3 q-15 60 -84 111 l9 8 q106 -7 137 -56 q13 -19 9 -39 q-4 -18 -19 -27 l238 0 l53 69 q61 -47 97 -82 q-4 -16 -27 -16 l-843 0 l-9 29 ZM696 486 l0 107 l-377 0 l0 -107 l377 0 ZM696 419 l0 38 l-377 0 l0 -21 q0 -6 -22 -14 q-24 -9 -46 -9 l-11 0 l0 246 l85 -37 l361 0 l41 44 l92 -68 q-14 -14 -42 -20 l0 -137 q-1 -5 -25 -13 q-25 -9 -43 -9 l-13 0 ZM180 341 q1 -88 -58 -119 q-22 -13 -44 -9 q-24 4 -31 24 q-13 36 32 59 q30 14 49 48 q22 36 19 77 l17 1 q10 -25 13 -52 l647 0 l46 46 l84 -80 q-8 -8 -38 -10 q-44 -58 -102 -109 l-12 7 q16 57 29 117 l-651 0 ZM63 -61 q171 48 229 141 q46 73 32 202 l123 -26 q-6 -23 -38 -24 q-8 -123 -65 -185 q-76 -85 -276 -123 l-5 15 ZM908 20 q29 -11 29 -30 q0 -24 -35 -32 q-35 -9 -140 -9 l-94 0 q-57 0 -75 15 q-17 13 -17 53 l0 255 l105 -11 q-3 -20 -30 -24 l0 -209 q0 -11 6 -14 q6 -3 28 -3 l82 0 q65 0 75 1 q15 1 19 10 q12 17 31 97 l13 0 l3 -99 Z" /><glyph glyph-name="" unicode="&#x2f08;&#x4eba;" d="M547 809 q-3 -24 -36 -28 q18 -303 107 -471 q106 -198 350 -304 l-2 -11 q-66 -9 -83 -73 q-187 102 -278 281 q-77 152 -101 400 q-17 -221 -98 -365 q-107 -192 -353 -318 l-13 16 q258 168 338 422 q46 147 47 464 l122 -13 Z" /><glyph glyph-name="" unicode="&#x4ec1;" d="M350 641 l413 0 l55 71 q63 -52 101 -88 q-4 -16 -28 -16 l-533 0 l-8 33 ZM386 801 q-7 -21 -39 -20 q-48 -121 -103 -213 l40 -15 q-7 -14 -31 -18 l0 -588 q-1 -6 -21 -16 q-23 -10 -45 -10 l-16 0 l0 537 q-61 -81 -128 -139 l-13 9 q151 209 231 514 l125 -41 ZM862 125 q65 -52 103 -88 q-4 -16 -28 -16 l-625 0 l-9 33 l504 0 l55 71 Z" /><glyph glyph-name="" unicode="&#x4ec7;" d="M284 552 q-6 -12 -30 -18 l0 -582 q-1 -8 -20 -19 q-23 -13 -45 -13 l-15 0 l0 549 q-62 -86 -131 -149 l-14 9 q153 211 230 512 l121 -38 q-9 -21 -39 -20 q-45 -117 -102 -214 l45 -17 ZM950 38 q27 -12 27 -35 q0 -49 -128 -49 l-53 0 q-47 0 -63 17 q-14 15 -14 58 l0 533 l-152 0 q-6 -242 -56 -373 q-65 -168 -234 -271 l-12 17 q127 106 176 270 q39 129 43 357 l-157 0 l-9 30 l166 0 l0 246 l122 -13 q-5 -24 -36 -28 l-1 -105 q0 -67 -1 -100 l141 0 l43 49 l88 -74 q-10 -11 -40 -17 l0 -499 q0 -20 20 -20 l33 0 q28 0 34 1 q10 0 15 13 q9 22 33 164 l12 0 l3 -171 Z" /><glyph glyph-name="" unicode="&#x4ecb;" d="M718 481 q-3 -23 -37 -28 l0 -509 q0 -7 -21 -16 q-23 -10 -44 -10 l-16 0 l0 575 l118 -12 ZM420 481 q-4 -23 -33 -27 l0 -109 q-3 -146 -58 -238 q-75 -127 -262 -188 l-8 14 q248 119 248 413 l0 146 l113 -11 ZM527 774 q-153 -282 -490 -418 l-8 14 q138 76 261 214 q123 138 158 257 l140 -34 q-4 -16 -42 -20 q114 -194 429 -305 l-1 -15 q-58 -13 -73 -73 q-281 137 -374 380 Z" /><glyph glyph-name="" unicode="&#x4ed5;" d="M386 802 q-9 -22 -38 -19 q-45 -114 -104 -214 l39 -14 q-7 -14 -30 -18 l0 -589 q-2 -6 -22 -16 q-23 -10 -45 -10 l-16 0 l0 536 q-56 -77 -124 -138 l-14 9 q153 213 232 513 l122 -40 ZM646 469 l0 -469 l144 0 l55 69 q61 -48 98 -82 q-3 -16 -27 -16 l-591 0 l-8 29 l243 0 l0 469 l-264 0 l-8 30 l272 0 l0 332 l122 -12 q-5 -24 -36 -29 l0 -291 l168 0 l54 67 q61 -46 98 -81 q-4 -16 -27 -16 l-293 0 Z" /><glyph glyph-name="" unicode="&#x4ed6;" d="M373 802 q-9 -20 -39 -19 q-41 -116 -98 -213 l40 -15 q-5 -15 -31 -19 l0 -590 q-1 -6 -21 -16 q-23 -10 -44 -10 l-15 0 l0 537 q-58 -81 -121 -138 l-14 9 q145 211 219 514 l124 -40 ZM924 37 q39 -13 39 -35 q0 -31 -52 -41 q-55 -11 -223 -10 l-157 0 q-84 0 -114 19 q-32 20 -32 77 l0 372 l-87 -36 l-20 23 l107 46 l0 253 l113 -12 q-2 -22 -35 -28 l0 -180 l133 56 l0 304 l114 -13 q-3 -23 -37 -28 l0 -230 l141 60 l46 48 l78 -81 q-10 -10 -40 -13 q-47 -254 -126 -408 l-15 6 q42 179 60 418 l-144 -62 l0 -397 q0 -7 -20 -17 q-22 -10 -42 -10 l-15 0 l0 391 l-133 -56 l0 -389 q0 -24 14 -32 q15 -9 60 -9 l155 0 q109 0 142 3 q22 3 31 16 q15 25 43 141 l12 0 l4 -146 Z" /><glyph glyph-name="" unicode="&#x4ed9;" d="M360 803 q-7 -20 -39 -20 q-42 -113 -98 -214 l40 -15 q-5 -14 -30 -18 l0 -589 q-2 -6 -22 -16 q-23 -10 -43 -10 l-15 0 l0 537 q-61 -84 -121 -138 l-14 10 q146 207 220 512 l122 -39 ZM955 599 q-3 -22 -36 -27 l0 -597 q0 -8 -21 -17 q-22 -10 -43 -10 l-16 0 l0 62 l-403 0 l-29 -43 l-86 55 q10 11 28 23 l0 567 l116 -13 q-3 -22 -36 -27 l0 -533 l165 0 l0 789 l116 -12 q-3 -24 -36 -29 l0 -748 l165 0 l0 572 l116 -12 Z" /><glyph glyph-name="" unicode="&#x4ee3;" d="M696 805 q152 -21 165 -99 q4 -29 -16 -43 q-22 -15 -51 1 q-27 67 -107 133 l9 8 ZM387 801 q-7 -21 -39 -20 q-44 -113 -100 -207 l50 -19 q-6 -13 -32 -17 l0 -593 q-1 -6 -21 -15 q-22 -11 -43 -11 l-16 0 l0 559 q-67 -93 -142 -159 l-14 9 q151 208 232 514 l125 -41 ZM938 12 q42 -56 25 -76 q-19 -25 -65 -11 q-39 11 -81 42 q-212 155 -268 518 l-228 -26 l-11 28 l235 27 q-20 141 -20 314 l122 -15 q-4 -23 -36 -28 q-2 -141 14 -262 l185 21 l46 72 q66 -39 106 -67 q-2 -15 -24 -19 l-309 -36 q48 -324 231 -445 q14 -11 20 -11 q7 1 14 15 q23 38 52 116 l10 -2 l-18 -155 Z" /><glyph glyph-name="" unicode="&#x4ee4;" d="M757 400 l89 -86 q-12 -11 -42 -12 q-92 -115 -249 -225 q94 -61 95 -121 q1 -24 -16 -35 q-18 -11 -45 -1 q-85 123 -292 244 l9 9 q137 -28 229 -83 q102 115 166 229 l-535 0 l-8 29 l546 0 l53 52 ZM621 570 q57 -42 93 -74 q-4 -16 -27 -16 l-389 0 l-8 30 l279 0 l52 60 ZM583 806 q-4 -17 -43 -21 q126 -165 434 -275 l-1 -16 q-59 -13 -74 -75 q-274 139 -377 354 q-171 -251 -494 -391 l-8 14 q129 76 255 207 q129 134 167 238 l141 -35 Z" /><glyph glyph-name="" unicode="&#x4ee5;" d="M380 676 q194 -73 217 -180 q8 -40 -14 -57 q-24 -18 -57 5 q-32 97 -157 224 l11 8 ZM521 242 q-195 -111 -419 -215 q-5 -20 -23 -27 l-49 100 q56 14 144 41 l-10 648 l116 -10 q-2 -23 -34 -28 l9 -585 q98 32 261 88 l5 -12 ZM898 773 q-5 -25 -39 -28 q-14 -374 -131 -536 q200 -96 228 -212 q10 -43 -12 -62 q-23 -18 -58 4 q-41 104 -178 245 q-132 -163 -436 -264 l-10 18 q320 143 426 360 q76 153 84 488 l126 -13 Z" /><glyph glyph-name="" unicode="&#x4ef2;" d="M366 804 q-7 -21 -38 -20 q-42 -111 -98 -212 l43 -16 q-5 -14 -29 -17 l0 -594 q-2 -6 -22 -15 q-22 -10 -43 -10 l-14 0 l0 549 q-56 -80 -123 -142 l-14 9 q144 204 219 506 l119 -38 ZM842 316 l0 282 l-175 0 l0 -282 l175 0 ZM588 316 l0 282 l-170 0 l0 -282 l170 0 ZM964 604 q-14 -16 -42 -21 l0 -337 q-1 -6 -24 -15 q-25 -9 -44 -9 l-12 0 l0 65 l-175 0 l0 -339 q0 -8 -20 -17 q-21 -10 -43 -10 l-16 0 l0 366 l-170 0 l0 -52 q0 -7 -21 -16 q-22 -10 -45 -10 l-11 0 l0 454 l83 -36 l164 0 l0 203 l124 -13 q-5 -29 -45 -34 l0 -156 l165 0 l41 46 l91 -69 Z" /><glyph glyph-name="" unicode="&#x4ef6;" d="M361 799 q-7 -20 -38 -19 q-39 -105 -94 -206 l47 -18 q-5 -14 -29 -18 l0 -592 q-1 -6 -22 -16 q-23 -10 -44 -10 l-15 0 l0 552 q-59 -85 -121 -143 l-14 10 q142 207 213 502 l117 -42 ZM876 399 q61 -48 96 -81 q-4 -16 -26 -16 l-275 0 l0 -354 q0 -8 -21 -17 q-22 -10 -44 -10 l-17 0 l0 381 l-290 0 l-8 29 l298 0 l0 244 l-153 0 q-61 -123 -135 -196 l-14 9 q91 159 130 400 l117 -37 q-7 -19 -38 -19 q-18 -61 -47 -128 l140 0 l0 226 l119 -13 q-5 -24 -37 -29 l0 -184 l128 0 l51 66 q59 -46 94 -79 q-4 -16 -27 -16 l-246 0 l0 -244 l154 0 l51 68 Z" /><glyph glyph-name="" unicode="&#x4efb;" d="M354 805 q-7 -22 -39 -21 q-45 -122 -95 -215 l42 -16 q-5 -14 -31 -18 l0 -589 q-1 -6 -22 -15 q-23 -10 -44 -10 l-15 0 l0 533 q-52 -73 -102 -123 l-14 9 q132 221 194 502 l126 -37 ZM652 365 l0 -361 l147 0 l49 67 q57 -47 92 -80 q-4 -16 -27 -16 l-599 0 l-8 29 l265 0 l0 361 l-282 0 l-8 29 l290 0 l0 305 l-216 0 l-8 29 l418 0 l50 67 q58 -47 92 -80 q-4 -16 -26 -16 l-229 0 l0 -305 l169 0 l51 66 q57 -46 91 -79 q-3 -16 -26 -16 l-285 0 Z" /><glyph glyph-name="" unicode="&#x4f0f;" d="M715 782 q150 -35 159 -115 q3 -30 -18 -44 q-22 -14 -50 4 q-24 73 -101 148 l10 7 ZM280 555 q-5 -14 -29 -18 l0 -591 q-2 -6 -22 -16 q-23 -10 -45 -10 l-14 0 l0 547 q-59 -83 -128 -147 l-14 10 q149 209 225 512 l120 -38 q-9 -21 -38 -20 q-39 -106 -99 -213 l44 -16 ZM647 504 q61 -364 326 -516 l-3 -10 q-51 -3 -78 -58 q-214 174 -263 561 q-17 -208 -85 -329 q-80 -142 -263 -234 l-14 16 q146 102 211 244 q55 123 69 326 l-236 0 l-8 29 l246 0 q4 70 6 296 l120 -12 q-3 -24 -35 -28 q-4 -197 -8 -256 l182 0 l52 68 q60 -48 96 -81 q-4 -16 -26 -16 l-289 0 Z" /><glyph glyph-name="" unicode="&#x4f10;" d="M687 813 q154 -15 174 -91 q7 -28 -12 -43 q-19 -17 -49 -3 q-34 64 -122 128 l9 9 ZM368 804 q-7 -21 -38 -20 q-44 -115 -92 -202 l38 -15 q-5 -15 -29 -18 l0 -604 q-2 -6 -22 -15 q-24 -10 -45 -10 l-14 0 l0 542 q-58 -86 -122 -148 l-14 10 q141 212 218 518 l120 -38 ZM930 12 q41 -57 25 -76 q-21 -25 -67 -11 q-39 11 -81 42 q-93 68 -156 174 q-144 -132 -331 -200 l-8 13 q179 88 309 244 q-60 127 -88 318 l-235 -22 l-11 28 l243 23 q-16 134 -16 290 l121 -13 q-2 -22 -35 -29 q-2 -131 11 -240 l217 21 l43 66 q58 -38 91 -65 q-2 -18 -23 -20 l-325 -31 q19 -147 64 -253 q73 106 112 215 l112 -45 q-7 -18 -41 -14 q-59 -124 -150 -225 q58 -100 140 -153 q23 -19 34 5 q26 47 53 117 l10 -2 l-18 -157 Z" /><glyph glyph-name="" unicode="&#x4f34;" d="M918 733 q-9 -20 -39 -17 q-72 -106 -147 -173 l-14 8 q38 80 86 228 l114 -46 ZM372 766 q138 -83 135 -176 q-1 -34 -23 -46 q-23 -12 -49 12 q-8 83 -75 205 l12 5 ZM367 804 q-9 -21 -38 -20 q-50 -132 -116 -243 l63 -23 q-4 -13 -30 -19 l0 -555 q-1 -6 -22 -15 q-23 -10 -44 -10 l-15 0 l0 550 q-58 -83 -122 -142 l-14 9 q144 204 219 506 l119 -38 ZM875 337 q60 -48 95 -83 q-4 -15 -26 -15 l-288 0 l0 -288 q0 -9 -21 -20 q-22 -11 -43 -11 l-16 0 l0 319 l-275 0 l-8 29 l283 0 l0 193 l-251 0 l-8 29 l259 0 l0 344 l117 -13 q-5 -23 -37 -28 l0 -303 l147 0 l49 63 q57 -44 92 -76 q-3 -16 -26 -16 l-262 0 l0 -193 l167 0 l52 69 Z" /><glyph glyph-name="" unicode="&#x4f3c;" d="M541 682 q151 -87 153 -189 q0 -38 -24 -51 q-24 -14 -52 11 q-10 94 -90 223 l13 6 ZM362 803 q-7 -20 -38 -20 q-44 -117 -97 -212 l41 -15 q-5 -14 -30 -17 l0 -594 q-1 -6 -21 -15 q-23 -10 -43 -10 l-15 0 l0 540 q-56 -80 -114 -136 l-14 9 q135 206 211 508 l120 -38 ZM689 257 q-199 -117 -338 -192 q-5 -21 -21 -27 l-48 97 q39 10 103 32 l0 623 l112 -11 q-3 -21 -33 -26 l0 -560 l221 77 l4 -13 ZM920 786 q-5 -23 -36 -27 q-4 -235 -15 -318 q-22 -160 -94 -264 q167 -89 183 -190 q6 -38 -15 -53 q-21 -15 -52 6 q-27 77 -132 216 q-113 -146 -370 -234 l-11 18 q296 130 376 357 q44 126 45 502 l121 -13 Z" /><glyph glyph-name="" unicode="&#x4f4d;" d="M307 610 l488 0 l53 67 q61 -46 97 -81 q-4 -16 -26 -16 l-604 0 l-8 30 ZM395 516 q167 -187 161 -354 q-2 -60 -28 -83 q-26 -22 -50 14 q-18 271 -97 415 l14 8 ZM518 840 q158 -59 159 -156 q1 -36 -24 -50 q-25 -14 -55 10 q-7 91 -89 189 l9 7 ZM371 803 q-6 -21 -39 -21 q-43 -112 -99 -209 l43 -16 q-5 -15 -30 -19 l0 -592 q-2 -7 -22 -16 q-23 -10 -44 -10 l-14 0 l0 548 q-68 -93 -131 -148 l-14 9 q149 209 228 513 l122 -39 ZM870 79 q61 -48 99 -83 q-4 -16 -27 -16 l-655 0 l-8 29 l358 0 q77 273 112 523 l128 -30 q-7 -23 -38 -24 q-74 -256 -183 -469 l159 0 l55 70 Z" /><glyph glyph-name="" unicode="&#x4f50;" d="M275 541 q-5 -15 -29 -18 l0 -578 q-2 -6 -22 -16 q-23 -10 -44 -10 l-15 0 l0 548 q-58 -83 -123 -143 l-14 9 q144 206 219 509 l119 -38 q-7 -20 -38 -20 q-45 -119 -104 -224 l51 -19 ZM871 69 q64 -48 100 -83 q-4 -16 -27 -16 l-623 0 l-8 29 l291 0 l0 339 l-138 0 q-81 -159 -198 -258 l-12 9 q149 179 221 503 l-176 0 l-8 29 l190 0 q20 97 32 211 l133 -19 q-5 -21 -40 -24 q-20 -107 -37 -168 l239 0 l54 68 q62 -47 99 -81 q-4 -16 -27 -16 l-373 0 q-36 -128 -83 -225 l295 0 l53 67 q59 -47 96 -81 q-3 -15 -26 -15 l-212 0 l0 -339 l131 0 l54 70 Z" /><glyph glyph-name="" unicode="&#x4f55;" d="M366 804 q-9 -21 -39 -20 q-42 -111 -102 -217 l45 -17 q-5 -12 -30 -18 l0 -587 q-1 -6 -21 -15 q-23 -10 -45 -10 l-15 0 l0 546 q-56 -78 -123 -139 l-13 9 q146 203 224 506 l119 -38 ZM588 255 l0 258 l-151 0 l0 -258 l151 0 ZM663 176 q-1 -4 -22 -12 q-24 -8 -41 -8 l-12 0 l0 71 l-151 0 l0 -65 q0 -6 -19 -15 q-22 -9 -44 -9 l-12 0 l0 438 l80 -33 l135 0 l41 45 l91 -69 q-13 -14 -46 -22 l0 -321 ZM875 796 q62 -49 99 -84 q-4 -16 -27 -16 l-78 0 l0 -665 q0 -51 -22 -75 q-28 -31 -106 -37 q-5 40 -26 56 q-30 21 -104 30 l0 15 q125 -9 150 -9 q27 0 27 23 l0 662 l-451 0 l-8 29 l492 0 l54 71 Z" /><glyph glyph-name="" unicode="&#x4f59;" d="M374 191 q-9 -15 -37 -9 q-113 -139 -288 -216 l-10 12 q152 113 231 270 l104 -57 ZM644 227 q221 -58 262 -175 q14 -42 -7 -65 q-21 -22 -58 -1 q-46 116 -207 232 l10 9 ZM829 395 q60 -45 98 -79 q-3 -16 -27 -16 l-359 0 l0 -270 q0 -51 -22 -74 q-28 -30 -104 -36 q-3 40 -23 57 q-29 21 -93 29 l0 14 q110 -7 133 -7 q23 0 23 20 l0 267 l-365 0 l-9 29 l374 0 l0 140 l-203 0 l-8 30 l373 0 l49 62 q58 -43 92 -76 q-4 -16 -26 -16 l-191 0 l0 -140 l234 0 l54 66 ZM587 812 q-4 -16 -42 -20 q123 -155 428 -257 l-1 -15 q-58 -12 -71 -72 q-275 132 -374 332 q-166 -235 -487 -368 l-7 14 q128 71 253 195 q127 126 165 225 l136 -34 Z" /><glyph glyph-name="" unicode="&#x4f5c;" d="M393 801 q-9 -20 -40 -19 q-48 -120 -112 -222 l47 -18 q-5 -15 -30 -18 l0 -580 q-2 -6 -22 -15 q-23 -10 -44 -10 l-14 0 l0 549 q-63 -85 -135 -147 l-14 9 q159 207 245 512 l119 -41 ZM653 608 l0 -181 l133 0 l50 64 q56 -45 91 -77 q-4 -16 -27 -16 l-247 0 l0 -186 l143 0 l52 67 q60 -46 98 -80 q-4 -16 -27 -16 l-266 0 l0 -239 q0 -6 -18 -14 q-22 -10 -50 -10 l-14 0 l0 688 l-63 0 q-89 -144 -196 -231 l-13 10 q141 184 220 454 l118 -43 q-9 -21 -40 -18 q-31 -74 -71 -143 l293 0 l53 67 q61 -47 98 -80 q-4 -16 -27 -16 l-290 0 Z" /><glyph glyph-name="" unicode="&#x4f60;" d="M368 804 q-7 -21 -38 -20 q-43 -116 -98 -212 l45 -17 q-5 -14 -29 -18 l0 -591 q-1 -6 -22 -15 q-23 -10 -44 -10 l-15 0 l0 548 q-56 -80 -123 -142 l-14 9 q144 204 219 506 l119 -38 ZM564 419 q-7 -21 -38 -20 q-79 -207 -213 -319 l-14 11 q104 144 152 362 l113 -34 ZM604 607 l115 -12 q-5 -22 -36 -27 l0 -538 q0 -53 -20 -74 q-25 -28 -100 -36 q-6 41 -23 58 q-26 22 -91 31 l0 14 q109 -7 131 -7 q24 0 24 21 l0 570 ZM756 447 q183 -137 200 -271 q7 -49 -16 -68 q-23 -19 -55 9 q-20 120 -142 323 l13 7 ZM966 616 q-8 -9 -37 -11 q-45 -76 -109 -138 l-12 7 q23 83 34 146 l-361 0 q-73 -131 -170 -213 l-13 10 q123 172 178 422 l117 -40 q-7 -21 -39 -20 q-27 -74 -58 -131 l340 0 l46 48 l84 -80 Z" /><glyph glyph-name="" unicode="&#x4f69;" d="M713 678 q47 -38 77 -66 q-4 -16 -26 -16 l-136 0 l0 -126 l57 0 l27 32 l68 -50 q-8 -11 -30 -16 l0 -289 q0 -45 -11 -63 q-14 -23 -57 -29 q-2 37 -11 50 q-10 17 -38 22 l0 16 q37 -3 47 -3 q13 0 13 16 l0 285 l-65 0 l0 -486 q0 -5 -14 -12 q-16 -8 -36 -8 l-9 0 l0 506 l-70 0 l0 -369 q0 -5 -15 -12 q-16 -8 -33 -8 l-10 0 l0 448 l63 -30 l65 0 l0 126 l-143 0 l-7 29 l252 0 l42 53 ZM950 5 q25 -72 1 -83 q-27 -12 -54 13 q-24 21 -40 63 q-66 157 -58 746 l-398 0 l0 -254 q0 -403 -155 -572 l-16 9 q100 178 100 562 l0 313 q-11 -15 -35 -15 q-34 -108 -83 -212 l36 -13 q-5 -15 -30 -19 l0 -601 q-1 -5 -20 -14 q-22 -9 -41 -9 l-14 0 l0 527 q-48 -77 -98 -133 l-15 10 q122 216 182 518 l121 -33 l0 -1 l81 -34 l374 0 l42 47 l85 -75 q-12 -14 -43 -19 q-27 -502 39 -656 q6 -21 14 1 q21 68 31 115 l13 -3 l-19 -178 Z" /><glyph glyph-name="" unicode="&#x4f73;" d="M567 687 l0 153 l113 -11 q-3 -21 -32 -26 l0 -116 l116 0 l52 67 q59 -47 94 -81 q-4 -16 -27 -16 l-235 0 l0 -195 l164 0 l51 68 q59 -47 94 -80 q-3 -16 -25 -16 l-614 0 l-8 28 l257 0 l0 195 l-202 0 l-8 30 l210 0 ZM375 803 q-8 -22 -38 -19 q-43 -113 -98 -210 l42 -16 q-5 -14 -29 -18 l0 -593 q-2 -6 -22 -16 q-23 -10 -45 -10 l-14 0 l0 544 q-58 -84 -128 -151 l-14 10 q146 213 226 518 l120 -39 ZM874 59 q62 -48 97 -83 q-3 -16 -26 -16 l-646 0 l-8 29 l276 0 l0 225 l-219 0 l-8 29 l227 0 l0 179 l113 -11 q-3 -21 -32 -26 l0 -142 l133 0 l53 67 q59 -47 95 -80 q-4 -16 -28 -16 l-253 0 l0 -225 l174 0 l52 70 Z" /><glyph glyph-name="" unicode="&#x4f7f;" d="M272 556 q-5 -14 -29 -17 l0 -594 q-1 -6 -21 -15 q-23 -10 -44 -10 l-14 0 l0 546 q-55 -78 -120 -139 l-14 9 q141 204 217 506 l119 -37 q-7 -22 -38 -21 q-42 -113 -97 -212 l41 -16 ZM586 348 l0 183 l-159 0 l0 -183 l159 0 ZM665 531 l0 -156 q0 -18 -1 -27 l158 0 l0 183 l-157 0 ZM662 318 q-11 -130 -75 -215 q154 -84 387 -93 l0 -11 q-56 -15 -67 -78 q-233 32 -360 137 q-96 -90 -284 -138 l-8 15 q173 62 251 162 q-62 66 -98 155 l14 7 q40 -70 111 -121 q43 75 51 180 l-157 0 l0 -33 q0 -6 -21 -15 q-23 -10 -46 -10 l-10 0 l0 335 l82 -35 l154 0 l0 108 l-260 0 l-8 29 l268 0 l0 143 l114 -12 q-3 -23 -35 -28 l0 -103 l148 0 l53 68 q61 -47 98 -81 q-4 -16 -26 -16 l-273 0 l0 -108 l147 0 l41 45 l90 -68 q-10 -14 -42 -20 l0 -226 q-1 -6 -24 -15 q-24 -10 -42 -10 l-13 0 l0 52 l-160 0 Z" /><glyph glyph-name="" unicode="&#x4f86;&#xf92d;" d="M812 587 q-7 -22 -38 -22 q-13 -46 -33 -87 q146 -52 156 -136 q4 -32 -17 -45 q-21 -14 -49 4 q-21 67 -103 151 q-50 -92 -126 -147 q142 -186 365 -254 l-2 -11 q-53 -10 -69 -71 q-245 116 -358 389 l0 -408 q0 -9 -22 -20 q-22 -11 -44 -11 l-16 0 l0 345 q-162 -193 -412 -297 l-9 15 q300 162 421 448 l0 218 l-396 0 l-8 29 l404 0 l0 163 l117 -13 q-5 -23 -35 -28 l0 -122 l255 0 l55 69 q63 -47 101 -82 q-4 -16 -26 -16 l-385 0 l0 -240 q22 -46 51 -85 q84 116 108 292 l115 -28 ZM359 581 q-7 -21 -37 -20 q-11 -32 -34 -79 q114 -47 109 -115 q-2 -26 -22 -35 q-21 -9 -45 9 q-10 52 -58 112 q-70 -123 -176 -191 l-13 11 q121 129 166 342 l110 -34 Z" /><glyph glyph-name="" unicode="&#x4f8d;" d="M558 671 l0 171 l112 -10 q-1 -21 -31 -26 l0 -135 l160 0 l51 66 q60 -46 96 -79 q-4 -16 -27 -16 l-280 0 l0 -155 l121 0 l53 66 q60 -46 96 -79 q-4 -16 -27 -16 l-525 0 l-8 29 l209 0 l0 155 l-241 0 l-8 29 l249 0 ZM270 557 q-6 -14 -31 -18 l0 -592 q-1 -6 -22 -16 q-22 -10 -43 -10 l-15 0 l0 534 q-53 -77 -113 -134 l-14 8 q141 218 206 513 l123 -38 q-7 -21 -39 -20 q-45 -124 -92 -212 l40 -15 ZM389 263 q158 -51 168 -139 q3 -33 -19 -47 q-23 -14 -53 6 q-22 78 -107 174 l11 6 ZM882 392 q58 -46 93 -79 q-3 -16 -26 -16 l-179 0 l0 -279 q0 -50 -22 -71 q-27 -26 -107 -33 q-6 39 -28 52 q-33 19 -104 28 l0 14 q130 -8 154 -8 q27 0 27 21 l0 276 l-416 0 l-8 29 l424 0 l0 106 l115 -12 q-4 -21 -35 -26 l0 -68 l61 0 l51 66 Z" /><glyph glyph-name="" unicode="&#x4faf;" d="M364 803 q-7 -20 -39 -19 q-46 -123 -96 -211 l44 -16 q-5 -14 -30 -18 l0 -594 q-2 -6 -22 -15 q-23 -10 -44 -10 l-14 0 l0 550 q-56 -80 -122 -141 l-14 10 q145 207 218 501 l119 -37 ZM658 184 q228 -66 270 -185 q15 -43 -6 -66 q-21 -23 -57 -2 q-47 124 -217 244 l10 9 ZM879 668 q54 -45 87 -78 q-4 -16 -26 -16 l-622 0 l-8 29 l391 0 l23 150 l-327 0 l-9 29 l332 0 l37 40 l79 -65 q-8 -10 -32 -13 l-20 -141 l47 0 l48 65 ZM866 326 q60 -46 96 -80 q-4 -16 -27 -16 l-302 0 q-54 -210 -342 -309 l-11 16 q228 106 272 293 l-251 0 l-8 30 l265 0 q11 65 13 166 l-122 0 q-52 -75 -119 -124 l-14 10 q75 103 118 262 l108 -37 q-7 -21 -37 -18 q-12 -26 -36 -64 l282 0 l54 65 q59 -44 98 -78 q-4 -16 -28 -16 l-217 0 q-5 -107 -17 -166 l173 0 l52 66 Z" /><glyph glyph-name="" unicode="&#x4fbf;&#xf965;" d="M275 557 q-5 -14 -29 -18 l0 -594 q-2 -6 -22 -15 q-23 -10 -44 -10 l-15 0 l0 549 q-56 -80 -123 -142 l-14 9 q144 204 219 506 l119 -38 q-7 -21 -38 -20 q-40 -107 -97 -210 l44 -17 ZM582 319 q1 15 1 47 l0 74 l-157 0 l0 -121 l156 0 ZM426 586 l0 -118 l157 0 l0 118 l-157 0 ZM663 586 l0 -118 l165 0 l0 118 l-165 0 ZM828 319 l0 121 l-165 0 l0 -72 q0 -33 -1 -49 l166 0 ZM660 290 q-10 -124 -69 -201 q156 -71 386 -76 l0 -12 q-57 -15 -68 -79 q-230 27 -361 121 q-91 -81 -285 -124 l-9 14 q175 60 250 147 q-63 58 -103 142 l15 9 q41 -64 117 -111 q39 69 47 170 l-154 0 l0 -34 q0 -7 -21 -15 q-22 -10 -45 -10 l-12 0 l0 420 l84 -36 l151 0 l0 112 l-245 0 l-8 28 l488 0 l52 69 q61 -48 98 -81 q-4 -16 -26 -16 l-279 0 l0 -112 l155 0 l41 45 l90 -68 q-11 -15 -41 -21 l0 -312 q-1 -6 -24 -14 q-25 -9 -43 -9 l-13 0 l0 54 l-168 0 Z" /><glyph glyph-name="" unicode="&#x4fd8;" d="M323 711 q281 45 497 124 l85 -82 q-17 -15 -56 3 q-238 -48 -522 -62 l-4 17 ZM685 481 q62 95 114 230 l104 -47 q-9 -20 -39 -16 q-86 -115 -165 -177 l-14 10 ZM553 697 q116 -63 109 -141 q-3 -29 -23 -38 q-21 -10 -43 10 q-3 75 -55 163 l12 6 ZM381 676 q126 -61 125 -141 q-1 -30 -21 -41 q-21 -11 -44 9 q-7 76 -72 166 l12 7 ZM363 804 q-7 -21 -39 -20 q-43 -118 -94 -207 l42 -16 q-4 -13 -31 -19 l0 -597 q-1 -6 -21 -16 q-22 -10 -43 -10 l-14 0 l0 550 q-57 -81 -124 -143 l-14 10 q146 210 217 506 l121 -38 ZM873 305 q57 -45 92 -79 q-4 -16 -27 -16 l-273 0 l0 -182 q0 -51 -19 -73 q-26 -28 -98 -35 q-5 42 -21 57 q-22 20 -85 30 l0 15 q102 -7 123 -7 q21 0 21 18 l0 177 l-290 0 l-8 29 l298 0 l0 104 l52 -6 q48 37 116 97 l-397 0 l-9 29 l426 0 l49 48 l84 -76 q-10 -10 -42 -11 q-114 -58 -193 -90 l27 -3 q-3 -21 -34 -25 l0 -67 l157 0 l51 66 Z" /><glyph glyph-name="" unicode="&#x4fdd;" d="M360 803 q-9 -20 -39 -19 q-41 -113 -96 -211 l44 -17 q-7 -14 -31 -17 l0 -594 q-1 -6 -21 -15 q-23 -10 -43 -10 l-15 0 l0 548 q-60 -83 -121 -139 l-15 10 q145 204 218 501 l119 -37 ZM274 -24 q115 116 197 292 l107 -53 q-11 -20 -41 -14 q-106 -149 -252 -237 l-11 12 ZM705 248 q210 -95 245 -208 q12 -41 -8 -60 q-20 -18 -54 3 q-43 98 -195 257 l12 8 ZM466 516 l320 0 l0 226 l-320 0 l0 -226 ZM874 402 q59 -45 95 -79 q-4 -16 -27 -16 l-278 0 l0 -361 q-1 -7 -19 -16 q-22 -11 -48 -11 l-13 0 l0 388 l-288 0 l-8 29 l296 0 l0 151 l-118 0 l0 -41 q0 -6 -17 -13 q-21 -9 -47 -9 l-13 0 l0 384 l88 -37 l306 0 l39 46 l81 -63 q-12 -13 -38 -17 l0 -280 q0 -4 -19 -11 q-22 -8 -47 -8 l-13 0 l0 49 l-122 0 l0 -151 l158 0 l52 66 Z" /><glyph glyph-name="" unicode="&#x4fe0;" d="M275 557 q-5 -14 -29 -18 l0 -594 q-2 -6 -22 -15 q-23 -10 -44 -10 l-15 0 l0 549 q-56 -80 -123 -142 l-14 9 q144 204 219 506 l119 -38 q-7 -21 -38 -20 q-40 -107 -97 -210 l44 -17 ZM497 557 q-5 -22 -35 -23 q-11 -54 -32 -107 q105 -48 100 -110 q-2 -23 -20 -30 q-19 -8 -40 9 q-9 42 -52 104 q-45 -100 -123 -156 l-14 9 q94 122 108 325 l108 -21 ZM686 282 q74 -188 278 -278 l-1 -12 q-63 -13 -74 -75 q-213 125 -256 463 q-40 -335 -357 -458 l-10 14 q172 93 241 251 q54 124 54 323 l0 120 l-252 0 l-8 28 l260 0 l0 180 l114 -12 q-5 -23 -35 -28 l0 -140 l164 0 l52 67 q60 -47 96 -79 q-4 -16 -27 -16 l-285 0 l0 -136 q11 -120 43 -205 q71 110 82 291 l113 -22 q-7 -22 -35 -23 q-14 -57 -33 -104 q128 -45 132 -117 q1 -27 -19 -38 q-20 -11 -44 6 q-15 56 -79 128 q-41 -85 -105 -134 l-9 6 Z" /><glyph glyph-name="" unicode="&#x4fe1;" d="M547 851 q152 -39 156 -127 q2 -33 -21 -47 q-24 -15 -53 6 q-12 81 -92 161 l10 7 ZM367 804 q-8 -19 -39 -19 q-38 -111 -94 -212 l41 -16 q-4 -13 -30 -17 l0 -595 q-2 -6 -22 -16 q-23 -10 -43 -10 l-14 0 l0 543 q-62 -88 -124 -148 l-14 9 q145 217 216 519 l123 -38 ZM823 445 q53 -43 86 -75 q-4 -16 -26 -16 l-494 0 l-8 29 l395 0 l47 62 ZM386 492 l-8 29 l398 0 l48 62 q53 -43 86 -75 q-4 -16 -27 -16 l-497 0 ZM795 28 l0 194 l-320 0 l0 -194 l320 0 ZM827 297 l89 -69 q-12 -14 -41 -19 l0 -252 q-1 -6 -24 -15 q-24 -10 -43 -10 l-13 0 l0 66 l-320 0 l0 -53 q0 -7 -21 -16 q-24 -10 -46 -10 l-12 0 l0 369 l85 -36 l304 0 l42 45 ZM879 726 q59 -46 94 -79 q-4 -16 -27 -16 l-626 0 l-7 29 l516 0 l50 66 Z" /><glyph glyph-name="" unicode="&#x4fee;" d="M325 806 q-6 -21 -39 -21 q-35 -115 -81 -214 l45 -17 q-7 -14 -31 -17 l0 -594 q-1 -5 -20 -14 q-22 -9 -42 -9 l-13 0 l0 538 q-46 -76 -99 -135 l-14 9 q117 208 178 509 l116 -35 ZM365 62 q0 -7 -19 -15 q-20 -10 -40 -10 l-14 0 l0 653 l106 -11 q-5 -21 -33 -25 l0 -592 ZM349 -63 q344 86 512 293 l100 -59 q-10 -15 -41 -7 q-204 -194 -567 -245 l-4 18 ZM411 95 q223 91 359 234 l89 -57 q-11 -13 -38 -7 q-162 -125 -402 -187 l-8 17 ZM757 365 q-10 -13 -35 -7 q-122 -83 -300 -130 l-11 19 q152 65 259 174 l87 -56 ZM544 668 q45 -68 108 -114 q54 59 84 129 l-181 0 l-11 -15 ZM833 683 q-46 -93 -127 -162 q105 -55 264 -76 l-2 -11 q-48 -16 -55 -70 q-157 37 -255 119 q-112 -77 -272 -121 l-7 14 q147 58 240 144 q-50 55 -89 129 q-65 -83 -138 -131 l-14 11 q107 119 167 314 l107 -41 q-7 -20 -38 -17 q-17 -34 -40 -73 l242 0 l50 65 q57 -45 92 -78 q-3 -16 -26 -16 l-99 0 Z" /><glyph glyph-name="" unicode="&#x5009;" d="M716 23 l0 161 l-356 0 l0 -161 l356 0 ZM750 257 l79 -61 q-10 -12 -37 -17 l0 -221 q0 -5 -18 -12 q-21 -9 -45 -9 l-13 0 l0 57 l-356 0 l0 -53 q0 -6 -17 -13 q-20 -8 -45 -8 l-12 0 l0 329 l85 -36 l342 0 l37 44 ZM298 507 l0 -69 l392 0 l0 69 l-392 0 ZM690 337 l0 72 l-392 0 l0 -5 q0 -19 -2 -67 l394 0 ZM564 834 q-4 -16 -41 -19 q119 -133 410 -210 l-1 -14 q-56 -14 -69 -72 q-257 102 -358 284 q-92 -124 -280 -232 l86 -35 l190 0 q-12 3 -23 11 q-8 62 -62 120 l10 5 q104 -19 124 -74 q8 -21 -1 -39 q-8 -18 -26 -23 l158 0 l38 39 l80 -60 q-10 -12 -35 -17 l0 -195 q-1 -6 -22 -15 q-22 -9 -40 -9 l-12 0 l0 29 l-397 0 q-28 -251 -230 -374 l-11 12 q173 160 173 457 l0 168 q-90 -51 -186 -85 l-6 13 q125 61 242 168 q120 110 155 199 l134 -32 Z" /><glyph glyph-name="" unicode="&#x500b;" d="M698 359 l-146 0 l0 -170 l146 0 l0 170 ZM656 525 l0 -137 l52 0 l30 36 l61 -61 q-13 -12 -37 -16 l0 -217 q-8 -21 -52 -21 l-12 0 l0 51 l-146 0 l0 -41 q0 -6 -16 -13 q-18 -8 -37 -8 l-9 0 l0 321 l67 -31 l32 0 l0 137 l-138 0 l-8 28 l146 0 l0 143 l100 -10 q-3 -21 -33 -26 l0 -107 l53 0 l39 54 q47 -39 74 -66 q-3 -16 -25 -16 l-141 0 ZM838 33 l0 697 l-424 0 l0 -697 l424 0 ZM959 736 q-12 -14 -42 -20 l0 -754 q-1 -7 -24 -17 q-24 -11 -45 -11 l-10 0 l0 70 l-424 0 l0 -50 q0 -8 -18 -18 q-21 -11 -44 -11 l-13 0 l0 864 q-12 -8 -30 -7 q-38 -104 -91 -202 l46 -18 q-4 -12 -29 -18 l0 -598 q-1 -6 -21 -15 q-21 -10 -42 -10 l-14 0 l0 562 q-51 -77 -117 -141 l-14 9 q132 202 204 490 l117 -40 q-1 -4 -4 -7 l76 -35 l409 0 l41 48 l89 -71 Z" /><glyph glyph-name="" unicode="&#x500c;" d="M559 845 q70 -19 105 -54 q28 -29 26 -61 q-3 -29 -26 -40 q-25 -11 -51 11 q-3 74 -64 137 l10 7 ZM367 803 q-7 -20 -39 -20 q-47 -123 -96 -210 l40 -15 q-5 -15 -31 -18 l0 -594 q-1 -6 -21 -16 q-22 -10 -43 -10 l-15 0 l0 541 q-55 -80 -122 -142 l-14 10 q146 211 219 512 l122 -38 ZM808 23 l0 173 l-323 0 l0 -173 l323 0 ZM485 513 l0 -148 l276 0 l0 148 l-276 0 ZM838 267 l86 -64 q-11 -13 -38 -19 l0 -228 q-1 -5 -23 -14 q-24 -9 -43 -9 l-12 0 l0 61 l-323 0 l0 -48 q0 -8 -20 -18 q-22 -11 -46 -11 l-13 0 l0 662 l84 -37 l262 0 l39 40 l83 -62 q-9 -13 -35 -18 l0 -186 q-1 -4 -24 -12 q-24 -8 -42 -8 l-12 0 l0 39 l-276 0 l0 -110 l314 0 l39 42 ZM977 645 q-8 -8 -39 -11 q-53 -55 -94 -89 l-10 7 q3 25 14 99 l-443 0 q7 -82 -33 -115 q-18 -14 -39 -12 q-23 1 -32 20 q-15 35 27 62 q52 43 44 116 l17 0 q8 -21 12 -42 l441 0 l48 49 l87 -84 Z" /><glyph glyph-name="" unicode="&#x503c;" d="M361 803 q-9 -21 -39 -20 q-43 -122 -95 -214 l41 -15 q-7 -15 -31 -19 l0 -589 q-2 -6 -22 -15 q-23 -10 -43 -10 l-16 0 l0 533 q-52 -75 -116 -136 l-15 8 q141 213 213 514 l123 -37 ZM465 -13 l301 0 l0 131 l-301 0 l0 -131 ZM465 539 l0 -111 l301 0 l0 111 l-301 0 ZM465 147 l301 0 l0 112 l-301 0 l0 -112 ZM766 399 l-301 0 l0 -111 l301 0 l0 111 ZM896 47 q51 -42 81 -73 q-4 -16 -26 -16 l-672 0 l-8 29 l118 0 l0 618 l87 -37 l85 0 l4 107 l-241 0 l-7 29 l249 0 l3 137 l117 -10 q-3 -23 -35 -28 q-3 -49 -9 -99 l156 0 l54 67 q59 -46 95 -80 q-3 -16 -27 -16 l-281 0 q-4 -56 -11 -107 l126 0 l40 52 l96 -73 q-9 -13 -45 -19 l0 -541 l7 0 l44 60 Z" /><glyph glyph-name="" unicode="&#x5047;" d="M834 547 l0 203 l-176 0 l-9 29 l176 0 l40 45 l87 -68 q-7 -10 -37 -17 l0 -245 q-1 -6 -25 -15 q-25 -9 -43 -9 l-13 0 l0 48 l-178 0 l-8 29 l186 0 ZM30 345 q103 201 159 496 l116 -34 q-5 -21 -38 -21 q-36 -121 -79 -214 l49 -18 q-5 -14 -31 -17 l0 -594 q-1 -5 -20 -14 q-22 -9 -40 -9 l-14 0 l0 542 q-41 -70 -88 -126 l-14 9 ZM383 752 l0 -201 l145 0 l0 201 l-145 0 ZM383 145 l0 -192 q0 -9 -18 -20 q-20 -11 -44 -11 l-13 0 l0 895 l80 -38 l130 0 l40 44 l86 -67 q-8 -11 -38 -17 l0 -246 q-1 -5 -24 -14 q-24 -9 -42 -9 l-12 0 l0 53 l-145 0 l0 -160 l92 0 l44 58 q49 -41 79 -70 q-4 -16 -26 -16 l-189 0 l0 -162 l93 0 l46 62 q52 -44 84 -75 q-4 -15 -27 -15 l-196 0 ZM671 370 q30 -117 92 -205 q54 91 79 205 l-171 0 ZM961 374 q-8 -11 -39 -14 q-40 -147 -119 -245 q71 -78 171 -126 l-2 -10 q-49 -6 -70 -60 q-89 61 -144 147 q-96 -93 -244 -144 l-8 15 q139 67 224 178 q-55 106 -79 255 l-41 0 l-9 29 l237 0 l45 45 l78 -70 Z" /><glyph glyph-name="" unicode="&#x505a;" d="M303 807 q-5 -21 -38 -21 q-32 -112 -77 -213 l49 -19 q-5 -14 -31 -17 l0 -594 q-1 -5 -20 -14 q-22 -9 -40 -9 l-14 0 l0 542 q-44 -75 -90 -130 l-15 9 q108 207 162 500 l114 -34 ZM710 596 q-18 -44 -28 -65 q24 -155 72 -268 q49 134 61 333 l-105 0 ZM505 342 l-144 0 l0 -245 l144 0 l0 245 ZM898 596 q-23 -255 -105 -410 q71 -121 182 -189 l-3 -9 q-59 -12 -75 -67 q-89 76 -144 201 q-85 -120 -232 -201 l-10 12 q140 105 215 261 q-42 124 -60 307 q-35 -64 -77 -112 l-15 9 q36 73 67 184 q-6 -3 -15 -3 l-156 0 l0 -208 l41 0 l35 39 l68 -63 q-12 -13 -37 -18 l0 -298 q-1 -4 -18 -12 q-20 -10 -40 -10 l-14 0 l0 59 l-144 0 l0 -72 q0 -6 -18 -15 q-21 -9 -42 -9 l-11 0 l0 433 l76 -34 l28 0 l0 208 l-146 0 l-8 30 l154 0 l0 225 l109 -11 q-3 -22 -33 -26 l0 -188 l54 0 l45 61 q46 -39 77 -70 q30 119 40 241 l118 -25 q-5 -21 -37 -24 q-19 -92 -46 -166 l120 0 l48 65 q55 -46 86 -79 q-4 -16 -27 -16 l-50 0 Z" /><glyph glyph-name="" unicode="&#x5085;" d="M691 833 q118 -4 132 -61 q5 -21 -10 -33 q-16 -12 -39 -1 q-24 51 -92 85 l9 10 ZM338 806 q-7 -20 -38 -20 q-35 -111 -83 -210 l44 -17 q-7 -15 -31 -18 l0 -595 q-1 -6 -21 -15 q-23 -10 -43 -10 l-15 0 l0 537 q-54 -83 -102 -132 l-16 8 q129 216 188 507 l117 -35 ZM429 166 q143 -27 150 -102 q2 -28 -19 -41 q-22 -13 -49 4 q-17 65 -92 131 l10 8 ZM801 406 l0 68 l-161 0 l0 -68 l161 0 ZM566 406 l0 68 l-160 0 l0 -68 l160 0 ZM406 578 l0 -75 l160 0 l0 75 l-160 0 ZM640 578 l0 -75 l161 0 l0 75 l-161 0 ZM886 262 q49 -39 81 -69 q-4 -16 -27 -16 l-161 0 l0 -167 q0 -45 -17 -63 q-22 -22 -86 -28 q-3 31 -18 44 q-19 15 -71 22 l0 15 q82 -6 100 -6 q19 0 19 17 l0 166 l-431 0 l-8 30 l439 0 l0 75 l74 -8 q-1 17 -11 26 q-17 13 -53 17 l0 15 q52 -4 67 -4 q18 0 18 17 l0 31 l-161 0 l0 -76 q0 -7 -20 -16 q-20 -9 -39 -9 l-15 0 l0 101 l-160 0 l0 -99 q0 -6 -20 -15 q-21 -9 -41 -9 l-11 0 l0 389 l78 -35 l154 0 l0 80 l-271 0 l-7 29 l278 0 l0 125 l105 -11 q-3 -20 -31 -25 l0 -89 l194 0 l43 54 q50 -38 82 -67 q-4 -16 -26 -16 l-293 0 l0 -80 l152 0 l34 41 l85 -63 q-10 -12 -38 -18 l0 -226 q0 -32 -10 -46 q-13 -18 -49 -26 q-4 -19 -35 -24 l0 -38 l63 0 l44 55 Z" /><glyph glyph-name="" unicode="&#x508d;" d="M543 844 q67 -10 101 -38 q28 -24 27 -53 q-2 -26 -24 -36 q-24 -11 -50 8 q-8 59 -62 111 l8 8 ZM360 804 q-7 -21 -38 -20 q-38 -108 -92 -210 l39 -15 q-5 -13 -30 -17 l0 -598 q-1 -6 -21 -15 q-23 -10 -43 -10 l-15 0 l0 542 q-59 -84 -117 -137 l-14 9 q143 212 211 509 l120 -38 ZM385 492 q-3 -63 -38 -93 q-16 -14 -38 -12 q-24 2 -33 21 q-16 34 26 59 q56 38 59 97 l16 -1 q4 -14 8 -42 l290 0 q24 64 47 162 l-392 0 l-7 29 l480 0 l52 66 q61 -46 96 -79 q-3 -16 -27 -16 l-192 0 l111 -36 q-9 -20 -38 -17 q-46 -56 -103 -109 l141 0 l48 48 l84 -82 q-10 -9 -38 -10 q-67 -49 -106 -73 l-12 6 q1 5 26 82 l-460 0 ZM454 680 q124 -43 115 -114 q-3 -27 -25 -35 q-24 -10 -47 11 q-4 61 -54 132 l11 6 ZM549 483 q129 -25 125 -92 q-2 -25 -24 -34 q-23 -9 -47 10 q-11 55 -64 110 l10 6 ZM864 414 q55 -43 91 -74 q-4 -16 -27 -16 l-344 0 q-5 -51 -16 -98 l190 0 l43 44 l82 -68 q-9 -12 -38 -15 q-14 -201 -69 -241 q-37 -27 -101 -27 q2 38 -16 53 q-19 16 -80 27 l1 16 q93 -8 114 -8 q22 0 31 8 q29 26 41 182 l-205 0 q-54 -181 -266 -281 l-13 15 q204 134 214 393 l-191 0 l-8 29 l518 0 l49 61 Z" /><glyph glyph-name="" unicode="&#x5091;" d="M255 543 q-5 -15 -30 -18 l0 -583 q-1 -5 -20 -13 q-22 -10 -41 -10 l-14 0 l0 538 q-57 -91 -105 -142 l-15 8 q126 223 185 518 l116 -36 q-8 -23 -39 -20 q-34 -114 -87 -224 l50 -18 ZM257 -29 q107 93 180 236 l96 -51 q-11 -19 -40 -12 q-96 -121 -224 -186 l-12 13 ZM698 195 q191 -74 221 -172 q11 -36 -8 -52 q-20 -16 -50 3 q-42 86 -173 213 l10 8 ZM861 335 q56 -42 90 -74 q-3 -16 -26 -16 l-288 0 l0 -301 q0 -6 -21 -15 q-22 -9 -43 -9 l-15 0 l0 325 l-274 0 l-7 29 l281 0 l0 135 l112 -11 q-3 -21 -33 -26 l0 -98 l175 0 l49 61 ZM747 508 l0 164 l-49 0 q-13 -73 -33 -164 l82 0 ZM891 562 q45 -39 71 -68 q-4 -16 -25 -16 l-123 0 l0 -128 q0 -7 -18 -17 q-19 -10 -37 -10 l-12 0 l0 155 l-80 0 l-33 -33 l-69 55 q14 10 40 19 q20 87 30 153 l-22 0 l-3 10 q-9 -9 -34 -10 q-60 -265 -273 -364 l-9 15 q170 111 212 356 l-106 0 q-20 -38 -46 -71 q93 -37 84 -93 q-4 -21 -22 -27 q-19 -7 -38 10 q-4 41 -40 89 q-31 -40 -71 -69 l-14 11 q87 115 123 298 l104 -29 q-7 -21 -37 -20 q-9 -24 -29 -70 l87 0 l40 41 l67 -60 l-3 13 l142 0 l0 138 l97 -10 q-3 -19 -30 -24 l0 -104 l26 0 l37 52 q43 -38 69 -66 q-4 -16 -26 -16 l-106 0 l0 -164 l39 0 l38 54 Z" /><glyph glyph-name="" unicode="&#x5099;" d="M269 558 q-6 -14 -31 -18 l0 -593 q-1 -6 -22 -16 q-22 -10 -43 -10 l-15 0 l0 535 q-52 -77 -113 -135 l-14 8 q140 216 206 513 l123 -38 q-7 -21 -38 -20 q-42 -116 -93 -211 l40 -15 ZM532 555 l145 0 l0 126 l-145 0 l0 -126 ZM462 401 l0 -103 l140 0 l0 103 l-140 0 ZM678 401 l0 -103 l134 0 l0 103 l-134 0 ZM812 164 l0 105 l-134 0 l0 -105 l134 0 ZM602 164 l0 105 l-140 0 q-2 -58 -11 -105 l151 0 ZM875 616 q55 -43 87 -74 q-4 -16 -27 -16 l-406 0 q-23 -45 -60 -93 l7 -3 l326 0 l38 45 l91 -69 q-13 -15 -43 -19 l0 -375 q0 -47 -16 -66 q-21 -24 -82 -30 q-2 37 -13 51 q-20 20 -58 26 l0 15 q60 -5 76 -5 q17 0 17 18 l0 114 l-134 0 l0 -176 q0 -5 -17 -13 q-21 -9 -46 -9 l-13 0 l0 198 l-157 0 q-38 -144 -168 -215 l-12 11 q119 107 119 338 l0 75 q-58 -51 -124 -88 l-12 16 q126 102 194 254 l-154 0 l-8 29 l177 0 l0 126 l-119 0 l-8 30 l127 0 l0 125 l112 -12 q-3 -23 -37 -28 l0 -85 l145 0 l0 125 l112 -12 q-5 -23 -38 -28 l0 -85 l39 0 l48 61 q53 -43 86 -75 q-4 -16 -26 -16 l-147 0 l0 -126 l78 0 l46 61 Z" /><glyph glyph-name="" unicode="&#x50b3;" d="M661 614 l0 -70 l148 0 l0 70 l-148 0 ZM809 443 l0 71 l-148 0 l0 -71 l148 0 ZM582 443 l0 71 l-144 0 l0 -71 l144 0 ZM438 614 l0 -70 l144 0 l0 70 l-144 0 ZM582 737 l0 103 l116 -12 q-3 -23 -37 -28 l0 -63 l156 0 l51 64 q59 -46 95 -77 q-4 -16 -26 -16 l-276 0 l0 -64 l138 0 l41 42 l86 -65 q-9 -13 -37 -18 l0 -203 q-7 -18 -67 -18 l-13 0 l0 31 l-148 0 l0 -80 l140 7 q-36 26 -54 36 l8 11 q152 -15 179 -86 q10 -27 -6 -43 q-16 -16 -44 -5 q-18 30 -59 67 q-175 -29 -466 -68 q-9 -16 -26 -20 l-32 90 q60 -1 281 8 l0 83 l-144 0 l0 -29 q0 -7 -22 -15 q-23 -10 -46 -10 l-12 0 l0 320 l85 -35 l139 0 l0 64 l-265 0 l-8 29 l273 0 ZM348 805 q-7 -21 -39 -21 q-36 -108 -90 -213 l42 -16 q-5 -14 -29 -18 l0 -592 q-1 -6 -21 -15 q-23 -10 -44 -10 l-13 0 l0 537 q-51 -78 -108 -138 l-14 9 q126 210 193 513 l123 -36 ZM413 146 q138 -27 137 -99 q0 -26 -22 -37 q-23 -11 -49 8 q-15 59 -76 120 l10 8 ZM884 251 q55 -43 89 -74 q-4 -16 -27 -16 l-178 0 l0 -144 q0 -49 -19 -69 q-23 -24 -93 -30 q-5 36 -19 50 q-21 17 -79 25 l0 15 q92 -6 111 -6 q21 0 21 17 l0 142 l-394 0 l-8 30 l402 0 l0 89 l113 -11 q-4 -19 -35 -24 l0 -54 l69 0 l47 60 Z" /><glyph glyph-name="" unicode="&#x50be;" d="M303 806 q-5 -20 -38 -20 q-33 -116 -78 -216 l48 -18 q-5 -15 -30 -19 l0 -590 q-1 -5 -20 -14 q-22 -9 -41 -9 l-14 0 l0 537 q-44 -76 -88 -126 l-15 9 q110 211 162 500 l114 -34 ZM510 261 q-92 -95 -174 -169 q-6 -23 -20 -33 l-62 83 q33 22 33 44 l0 526 l104 -12 q-3 -22 -36 -27 l-1 -188 l40 0 l42 54 q49 -38 79 -67 q-4 -16 -26 -16 l-135 0 l0 -268 q8 4 149 84 l7 -11 ZM396 -66 q140 84 219 186 l98 -59 q-7 -13 -34 -5 q-92 -80 -274 -136 l-9 14 ZM754 105 q177 -34 204 -124 q9 -33 -10 -50 q-20 -18 -52 -2 q-40 83 -151 167 l9 9 ZM597 589 l0 -116 l227 0 l0 116 l-227 0 ZM824 176 l0 121 l-227 0 l0 -121 l227 0 ZM824 443 l-227 0 l0 -116 l227 0 l0 116 ZM881 827 q58 -44 92 -77 q-3 -16 -27 -16 l-183 0 q-36 -69 -67 -115 l118 0 l41 45 l86 -68 q-10 -14 -40 -20 l0 -441 q-1 -6 -23 -14 q-24 -9 -42 -9 l-12 0 l0 35 l-227 0 l0 -25 q0 -7 -19 -16 q-21 -10 -43 -10 l-13 0 l0 559 l80 -36 l53 0 q6 28 18 115 l-210 0 l-8 30 l376 0 l50 63 Z" /><glyph glyph-name="" unicode="&#x50cf;" d="M346 805 q-7 -20 -39 -20 q-33 -103 -85 -204 l38 -14 q-5 -14 -31 -18 l0 -604 q-1 -6 -21 -15 q-22 -10 -42 -10 l-15 0 l0 536 q-51 -78 -107 -137 l-14 9 q126 212 193 513 l123 -36 ZM657 429 q-30 -27 -63 -47 q52 -46 85 -111 q73 53 147 129 l-3 0 l0 29 l-166 0 ZM424 458 l166 0 l0 135 l-166 0 l0 -135 ZM504 721 q-40 -45 -93 -88 l26 -10 l173 0 q27 39 56 98 l-162 0 ZM666 593 l0 -135 l157 0 l0 135 l-157 0 ZM914 340 q-9 -11 -32 -3 q-50 -30 -131 -64 q55 -142 216 -208 l-2 -10 q-47 -8 -62 -65 q-131 92 -172 275 q-38 -14 -43 -15 q37 -84 36 -171 q-2 -81 -35 -121 q-25 -36 -114 -36 q-1 33 -20 48 q-23 15 -78 25 l-1 15 q114 -6 126 -6 q19 0 25 9 q32 42 19 150 q-169 -133 -364 -173 l-5 15 q205 68 355 234 q-5 18 -10 32 q-134 -97 -329 -151 l-7 16 q193 75 305 203 q-6 15 -17 29 q-123 -76 -300 -123 l-9 17 q171 65 291 167 l-132 0 l0 -18 q0 -6 -17 -14 q-21 -9 -47 -9 l-13 0 l0 197 q-30 -21 -65 -38 l-10 12 q139 110 213 285 l117 -37 q-7 -16 -37 -11 l-36 -46 l140 0 l44 46 l82 -74 q-7 -8 -38 -10 q-66 -58 -120 -89 l177 0 l39 41 l85 -63 q-12 -14 -37 -18 l0 -160 q-1 -5 -23 -13 q-23 -8 -41 -9 l77 -61 Z" /><glyph glyph-name="" unicode="&#x50f9;" d="M575 744 l0 -81 l98 0 l0 81 l-98 0 ZM744 634 l0 -111 l99 0 l0 111 l-99 0 ZM575 523 l98 0 l0 111 l-98 0 l0 -111 ZM409 523 l96 0 l0 111 l-96 0 l0 -111 ZM450 403 l0 -67 l351 0 l0 67 l-351 0 ZM801 238 l0 68 l-351 0 l0 -68 l351 0 ZM801 140 l0 68 l-351 0 l0 -68 l351 0 ZM325 772 l489 0 l52 65 q60 -45 96 -78 q-3 -15 -26 -15 l-192 0 l0 -81 l91 0 l37 41 l82 -61 q-9 -13 -32 -17 l0 -138 q-1 -6 -24 -14 q-24 -8 -43 -8 l-12 0 l0 28 l-434 0 l0 -15 q0 -5 -25 -16 l71 -30 l337 0 l40 41 l82 -63 q-10 -14 -34 -17 l0 -299 q-1 -6 -24 -15 q-24 -9 -42 -9 l-13 0 l0 40 l-351 0 l0 -25 q0 -6 -20 -15 q-23 -10 -45 -10 l-12 0 l0 399 q-18 -4 -29 -4 l-12 0 l0 242 l83 -35 l90 0 l0 81 l-172 0 l-8 28 ZM348 805 q-7 -21 -39 -21 q-39 -114 -89 -212 l41 -16 q-5 -14 -29 -17 l0 -594 q-1 -6 -21 -15 q-23 -10 -44 -10 l-13 0 l0 537 q-51 -78 -108 -138 l-14 9 q126 210 193 513 l123 -36 ZM272 -66 q152 61 249 162 l105 -59 q-13 -16 -51 -9 q-118 -74 -297 -108 l-6 14 ZM673 78 q267 -26 284 -112 q6 -30 -24 -42 q-31 -13 -58 12 q-66 78 -208 127 l6 15 Z" /><glyph glyph-name="" unicode="&#x5100;" d="M343 805 q-7 -21 -38 -21 q-39 -111 -91 -213 l43 -17 q-5 -14 -30 -17 l0 -594 q-1 -5 -20 -14 q-22 -9 -42 -9 l-12 0 l0 546 q-54 -83 -109 -139 l-14 9 q125 207 193 506 l120 -37 ZM738 250 q12 -61 29 -104 q35 40 66 89 l80 -59 q-11 -14 -39 -5 q-39 -47 -77 -81 q33 -47 80 -74 q17 -10 25 6 q19 37 34 88 l11 -2 l-10 -113 q31 -39 20 -57 q-26 -44 -111 8 q-65 38 -105 97 q-90 -67 -192 -105 l-8 16 q88 50 173 134 q-34 65 -50 162 l-151 0 l0 -76 l123 19 l2 -15 q-64 -22 -125 -41 l0 -117 q0 -46 -18 -67 q-24 -27 -88 -33 q-2 35 -18 51 q-18 17 -73 25 l0 15 q84 -7 102 -7 q20 0 20 18 l0 92 l-106 -32 q-7 -17 -24 -22 l-31 84 q47 4 161 19 l0 87 l-157 0 l-8 28 l165 0 l0 83 q-82 -12 -138 -15 l-5 16 q151 35 257 91 l-260 0 l-8 29 l280 0 l0 85 l-209 0 l-7 29 l216 0 l0 82 l-251 0 l-8 29 l179 0 q-1 0 -8 5 q-9 63 -65 121 l11 7 q92 -21 119 -69 q22 -41 -10 -64 l121 0 q29 66 44 135 l115 -36 q-8 -21 -37 -17 q-37 -40 -99 -82 l129 0 l49 60 q57 -42 92 -73 q-4 -16 -27 -16 l-274 0 l0 -82 l124 0 l46 58 q54 -40 87 -71 q-4 -16 -26 -16 l-231 0 l0 -85 l173 0 l50 64 q57 -44 93 -77 q-4 -16 -26 -16 l-379 0 l71 -65 q-13 -13 -49 1 q-24 -7 -64 -15 l0 -96 l147 0 q-9 71 -11 171 l107 -10 q-4 -22 -30 -26 q0 -78 8 -135 l104 0 l35 45 q-16 -2 -31 8 q-15 49 -77 89 l8 8 q88 -6 118 -44 q25 -32 -1 -54 q49 -40 76 -65 q-4 -15 -25 -15 l-203 0 Z" /><glyph glyph-name="" unicode="&#x5112;" d="M335 806 q-6 -21 -38 -21 q-44 -129 -94 -226 l46 -17 q-5 -15 -31 -18 l0 -581 q-1 -5 -20 -13 q-22 -10 -41 -10 l-13 0 l0 536 q-52 -81 -103 -135 l-14 9 q123 212 188 511 l120 -35 ZM362 643 q3 -71 -38 -104 q-17 -12 -37 -10 q-22 1 -30 19 q-14 34 25 56 q53 36 53 99 l17 -1 q3 -10 7 -30 l214 0 l0 74 l-220 0 l-8 29 l434 0 l49 62 q58 -43 92 -75 q-4 -16 -26 -16 l-245 0 l0 -74 l215 0 l41 42 l76 -73 q-11 -10 -38 -11 q-49 -49 -77 -72 l-14 6 q19 91 17 79 l-220 0 l0 -215 q0 -5 -17 -12 q-21 -8 -46 -8 l-13 0 l0 235 l-211 0 ZM682 498 q134 16 174 -35 q14 -18 5 -33 q-9 -16 -32 -12 q-65 46 -153 64 l6 16 ZM857 552 q-24 -9 -45 12 q-72 -29 -128 -41 l-10 17 q70 37 138 93 l45 -81 ZM346 474 q58 5 192 24 l2 -16 q-59 -27 -139 -59 q-8 -17 -23 -22 l-32 73 ZM368 598 q127 17 164 -32 q13 -18 5 -34 q-9 -15 -32 -11 q-59 42 -144 63 l7 14 ZM864 432 q56 -41 89 -72 q-4 -16 -26 -16 l-297 0 q-34 -47 -65 -83 l241 0 l38 43 l91 -67 q-12 -14 -43 -20 l0 -206 q0 -42 -17 -60 q-21 -21 -83 -27 q-4 34 -15 44 q-19 16 -61 22 l0 15 q65 -5 82 -5 q18 0 18 18 l0 213 l-101 0 l0 -201 q0 -4 -15 -11 q-19 -8 -42 -8 l-11 0 l0 220 l-92 0 l0 -236 q0 -4 -15 -10 q-19 -8 -41 -8 l-11 0 l0 254 l-91 0 l0 -284 q0 -6 -20 -15 q-22 -9 -43 -9 l-12 0 l0 373 l81 -35 l119 0 q8 24 23 83 l-254 0 l-8 30 l534 0 l47 58 Z" /><glyph glyph-name="" unicode="&#x512a;" d="M326 815 q-7 -22 -38 -23 q-31 -109 -80 -212 l44 -16 q-7 -14 -32 -18 l0 -601 q-1 -5 -20 -13 q-21 -10 -40 -10 l-14 0 l0 543 q-52 -85 -102 -136 l-15 9 q125 210 179 503 l118 -26 ZM481 466 l276 0 l0 44 l-276 0 l0 -44 ZM481 664 l0 -47 l276 0 l0 47 l-276 0 ZM757 588 l-276 0 l0 -49 l276 0 l0 49 ZM365 437 q-3 -67 -39 -94 q-16 -12 -36 -11 q-21 1 -30 17 q-14 32 24 54 q54 37 54 104 l17 -1 q7 -24 8 -40 l43 0 l0 263 l88 -35 l70 0 q6 27 9 59 l-236 0 l-8 29 l481 0 l51 59 q56 -41 93 -72 q-4 -16 -26 -16 l-273 0 q-15 -20 -52 -59 l145 0 l40 41 l83 -63 q-10 -11 -38 -18 l0 -188 l24 0 l41 42 l75 -73 q-8 -8 -38 -10 q-51 -37 -85 -58 q63 -41 53 -87 q-4 -18 -20 -24 q-16 -6 -35 6 q-24 72 -109 136 l10 9 q47 -11 83 -29 l25 59 l-492 0 ZM549 401 q-2 -20 -27 -23 l0 -65 q0 -9 5 -11 q5 -2 26 -2 l151 0 q12 0 18 7 q9 14 23 60 l12 0 l3 -60 q26 -7 26 -23 q0 -20 -30 -26 q-30 -6 -128 -6 l-88 0 q-50 0 -66 12 q-14 11 -14 44 l0 103 l89 -10 ZM578 428 q104 -25 105 -82 q1 -20 -15 -29 q-16 -9 -36 4 q-13 55 -65 99 l11 8 ZM424 403 q16 -104 -48 -151 q-15 -11 -34 -12 q-21 0 -29 14 q-12 25 21 49 q62 34 72 101 l18 -1 ZM512 165 l-39 -39 q59 -45 147 -74 q75 47 124 113 l-232 0 ZM875 168 q-8 -10 -42 -13 q-54 -74 -139 -123 q106 -24 270 -30 l-1 -11 q-49 -16 -56 -68 q-188 20 -299 67 q-123 -49 -313 -71 l-5 17 q152 26 266 81 q-63 36 -110 86 q-70 -59 -145 -95 l-11 11 q61 46 121 123 q-20 27 -45 65 l11 17 q23 -33 51 -60 q33 47 52 89 l114 -21 q-4 -16 -41 -19 l-7 -9 q-5 -7 -8 -10 l213 0 l47 44 l77 -70 Z" /><glyph glyph-name="" unicode="&#x5132;" d="M324 838 q128 -38 123 -112 q-2 -28 -24 -38 q-22 -12 -47 8 q-8 71 -63 136 l11 6 ZM298 810 q-7 -22 -38 -22 q-28 -109 -66 -205 l39 -14 q-7 -15 -31 -18 l0 -608 q-1 -5 -20 -14 q-22 -9 -41 -9 l-14 0 l0 523 q-43 -76 -80 -119 l-15 8 q106 213 150 508 l116 -30 ZM274 498 l-8 29 l145 0 l41 53 q48 -37 77 -66 q-4 -16 -26 -16 l-229 0 ZM275 367 l-8 29 l144 0 l42 54 q47 -38 77 -67 q-4 -16 -26 -16 l-229 0 ZM710 485 l5 0 q51 74 97 169 l-102 0 l0 -169 ZM656 326 l0 -133 l157 0 l0 133 l-157 0 ZM813 26 l0 137 l-157 0 l0 -137 l157 0 ZM434 46 l0 201 l-92 0 l0 -201 l92 0 ZM885 546 q52 -43 83 -74 q-4 -16 -26 -16 l-183 0 q-38 -49 -92 -100 l2 -1 l134 0 l40 44 l86 -66 q-10 -13 -41 -20 l0 -352 q-1 -6 -22 -15 q-23 -9 -41 -9 l-12 0 l0 60 l-157 0 l0 -52 q0 -7 -16 -15 q-19 -10 -43 -10 l-13 0 l0 363 q-46 -35 -80 -56 l0 -250 q-1 -6 -21 -14 q-21 -8 -38 -8 l-11 0 l0 61 l-92 0 l0 -69 q0 -5 -16 -13 q-19 -10 -42 -10 l-11 0 l0 386 l81 -34 l70 0 l38 39 l64 -48 l58 55 l0 68 l44 -18 q41 48 67 84 l-174 0 l-8 29 l124 0 l0 169 l-76 0 l7 -7 q-3 -16 -26 -16 l-298 0 l-8 30 l205 0 l45 58 q43 -34 74 -64 l-8 28 l85 0 l0 156 l104 -10 q-3 -20 -31 -25 l0 -121 l25 0 l40 55 q28 -23 54 -48 q20 44 33 84 l103 -41 q-9 -17 -40 -13 q-57 -123 -143 -235 l58 0 l45 61 Z" /><glyph glyph-name="" unicode="&#x5141;" d="M932 32 q31 -11 31 -35 q0 -28 -38 -38 q-42 -12 -158 -12 l-105 0 q-64 0 -86 17 q-21 16 -21 63 l0 455 l-129 -17 q-15 -219 -92 -336 q-88 -136 -295 -207 l-7 13 q166 86 236 215 q61 112 71 304 l-155 -18 q-9 -17 -24 -24 l-49 104 q24 4 34 10 q183 110 308 320 l110 -64 q-10 -18 -40 -12 q-122 -134 -323 -254 q140 2 552 19 q-69 94 -145 155 l10 9 q220 -87 257 -212 q14 -45 -8 -67 q-21 -22 -55 1 q-10 37 -44 91 l-133 -20 l0 -446 q0 -14 8 -19 q8 -6 35 -6 l94 0 q65 0 87 3 q13 0 20 15 q11 24 39 163 l12 0 l3 -170 Z" /><glyph glyph-name="" unicode="&#x5143;" d="M157 722 l-7 28 l558 0 l55 70 q63 -48 101 -82 q-4 -16 -27 -16 l-680 0 ZM942 35 q30 -12 30 -37 q0 -28 -37 -38 q-41 -12 -157 -12 l-104 0 q-64 0 -85 17 q-21 16 -21 64 l0 446 l-157 0 q-12 -227 -84 -345 q-84 -140 -289 -213 l-7 14 q163 89 229 226 q54 115 60 318 l-267 0 l-9 29 l755 0 l57 71 q65 -49 104 -84 q-4 -16 -27 -16 l-284 0 l0 -426 q0 -14 7 -19 q8 -5 35 -5 l91 0 q70 0 85 2 q16 0 21 15 q11 21 38 159 l13 0 l3 -166 Z" /><glyph glyph-name="" unicode="&#x5145;" d="M930 25 q32 -13 32 -34 q0 -26 -36 -36 q-40 -10 -154 -10 l-100 0 q-62 0 -83 16 q-20 15 -20 60 l0 371 q-70 -10 -158 -21 q-14 -153 -74 -243 q-85 -127 -291 -207 l-11 16 q166 85 232 205 q47 84 54 218 q-36 -3 -129 -14 q-8 -21 -24 -28 l-52 103 q23 5 33 13 q84 69 185 215 l-269 0 l-9 29 l298 0 q61 90 96 164 l117 -55 q-10 -20 -40 -16 q-28 -43 -72 -93 l327 0 l55 70 q63 -48 103 -83 q-3 -16 -28 -16 l-482 0 q-114 -128 -234 -227 q172 3 549 20 q-57 75 -133 135 l10 9 q214 -72 250 -188 q13 -43 -8 -64 q-21 -21 -55 0 q-14 39 -47 86 q-60 -10 -114 -18 l0 -365 q0 -13 7 -18 q8 -5 33 -5 l89 0 q68 0 82 2 q15 1 21 13 q12 25 35 132 l13 0 l2 -136 Z" /><glyph glyph-name="" unicode="&#x5146;" d="M119 703 q178 -73 194 -179 q6 -39 -16 -55 q-23 -17 -53 7 q-20 106 -136 220 l11 7 ZM347 833 l115 -12 q-3 -23 -35 -28 l0 -349 q-2 -195 -77 -314 q-90 -142 -302 -212 l-9 15 q278 129 304 425 q-59 -54 -184 -156 q-1 -19 -17 -28 l-71 88 q72 29 275 130 q1 17 1 52 l0 389 ZM931 45 q36 -15 36 -36 q0 -29 -40 -40 q-44 -12 -161 -12 l-102 0 q-65 0 -90 20 q-24 19 -24 70 l0 786 l115 -14 q-2 -23 -36 -28 l0 -293 q106 119 162 217 l105 -66 q-10 -15 -37 -9 q-100 -93 -230 -176 l0 -66 q206 -69 243 -177 q13 -39 -7 -59 q-19 -19 -53 0 q-45 95 -183 209 l0 -301 q0 -20 10 -27 q10 -8 39 -8 l93 0 q72 0 87 2 q13 0 22 10 q13 17 35 106 l12 0 l4 -108 Z" /><glyph glyph-name="" unicode="&#x5148;" d="M935 30 q30 -12 30 -36 q0 -29 -36 -39 q-41 -12 -157 -12 l-103 0 q-64 0 -85 16 q-20 15 -20 62 l0 363 l-141 0 q-17 -191 -96 -295 q-88 -116 -285 -173 l-6 14 q157 73 225 185 q60 99 70 269 l-280 0 l-9 29 l415 0 l0 203 l-196 0 q-63 -108 -145 -172 l-13 9 q105 152 144 361 l117 -34 q-6 -21 -36 -21 q-23 -62 -50 -114 l179 0 l0 192 l119 -12 q-3 -22 -36 -29 l0 -151 l182 0 l54 66 q61 -45 99 -79 q-4 -16 -27 -16 l-308 0 l0 -203 l260 0 l56 71 q63 -48 101 -84 q-4 -16 -26 -16 l-285 0 l0 -343 q0 -14 6 -17 q7 -5 33 -5 l92 0 q58 0 84 2 q16 1 22 15 q7 15 37 154 l13 0 l2 -160 Z" /><glyph glyph-name="" unicode="&#x5149;" d="M898 732 q-9 -19 -41 -15 q-103 -135 -209 -216 l-13 10 q74 109 146 275 l117 -54 ZM143 780 q179 -89 189 -206 q3 -43 -22 -60 q-25 -17 -57 10 q-13 108 -122 249 l12 7 ZM939 34 q30 -11 30 -36 q0 -28 -37 -38 q-42 -12 -161 -12 l-107 0 q-65 0 -86 16 q-21 16 -21 63 l0 398 l-129 0 q-17 -207 -96 -318 q-90 -125 -295 -188 l-5 14 q165 80 234 201 q61 106 70 291 l-289 0 l-8 28 l417 0 l0 388 l119 -11 q-3 -23 -36 -28 l0 -349 l266 0 l55 70 q64 -48 101 -82 q-4 -16 -26 -16 l-296 0 l0 -378 q0 -14 7 -19 q8 -5 34 -5 l95 0 q66 0 88 3 q16 1 22 15 q8 18 38 163 l13 0 l3 -170 Z" /><glyph glyph-name="" unicode="&#x514b;" d="M277 323 l444 0 l0 203 l-444 0 l0 -203 ZM934 24 q30 -12 30 -34 q0 -27 -37 -37 q-42 -11 -162 -11 l-112 0 q-63 0 -84 15 q-19 15 -19 59 l0 278 l-107 0 q-20 -163 -108 -249 q-90 -88 -286 -129 l-5 15 q158 55 229 141 q67 81 80 222 l-76 0 l0 -35 q0 -6 -21 -15 q-23 -10 -46 -10 l-12 0 l0 357 l85 -37 l174 0 l0 129 l-383 0 l-9 29 l392 0 l0 131 l117 -11 q-3 -23 -36 -28 l0 -92 l251 0 l55 66 q61 -45 99 -79 q-4 -16 -28 -16 l-377 0 l0 -129 l173 0 l41 46 l91 -68 q-13 -15 -42 -21 l0 -245 q-1 -6 -24 -15 q-25 -10 -44 -10 l-12 0 l0 53 l-94 0 l0 -261 q0 -12 7 -15 q7 -4 34 -4 l101 0 q78 0 93 1 q16 1 22 14 q11 23 34 128 l13 0 l3 -133 Z" /><glyph glyph-name="" unicode="&#x514c;" d="M588 828 q259 -74 322 -195 q23 -44 5 -69 q-18 -25 -57 -8 q-76 124 -280 262 l10 10 ZM292 333 l412 0 l0 221 l-412 0 l0 -221 ZM924 35 q30 -11 30 -34 q0 -26 -36 -35 q-40 -11 -153 -11 l-102 0 q-62 0 -82 16 q-19 14 -19 57 l0 276 l-124 0 q-13 -158 -72 -231 q-83 -102 -314 -156 l-10 16 q188 66 257 165 q48 70 55 206 l-62 0 l0 -31 q0 -6 -21 -16 q-24 -10 -46 -10 l-12 0 l0 360 q-76 -43 -164 -71 l-9 14 q209 113 307 287 l112 -57 q-9 -16 -37 -11 q-78 -88 -196 -155 l72 -31 l397 0 l40 44 l86 -66 q-12 -14 -38 -18 l0 -262 q-1 -5 -24 -14 q-24 -9 -42 -9 l-13 0 l0 46 l-63 0 l0 -261 q0 -11 6 -14 q7 -4 32 -4 l91 0 q70 0 83 1 q15 1 21 14 q10 18 34 127 l13 0 l3 -132 Z" /><glyph glyph-name="" unicode="&#x5152;" d="M937 23 q31 -13 31 -35 q0 -28 -37 -38 q-42 -11 -162 -11 l-110 0 q-64 0 -85 16 q-20 15 -20 60 l0 315 l-113 0 q-21 -172 -108 -266 q-92 -98 -286 -146 l-6 15 q160 62 232 157 q67 89 81 240 l-115 0 l0 -37 q-1 -7 -18 -15 q-22 -11 -51 -11 l-10 -1 l0 509 l91 -31 q92 50 151 100 l89 -70 q-14 -14 -51 -3 q-87 -36 -201 -59 l0 -152 l106 0 l45 59 q52 -42 83 -72 q-4 -16 -25 -16 l-209 0 l0 -172 l521 0 l0 172 l-202 0 l-8 29 l210 0 l0 168 l-214 0 l-9 28 l213 0 l42 48 l91 -70 q-13 -15 -42 -21 l0 -413 q-1 -6 -24 -15 q-25 -10 -45 -10 l-12 0 l0 55 l-126 0 l0 -297 q0 -13 7 -16 q7 -5 34 -5 l99 0 q62 0 90 2 q15 1 23 13 q9 19 35 129 l13 0 l2 -133 Z" /><glyph glyph-name="" unicode="&#x2f0a;&#x5165;" d="M485 822 l119 -87 q-24 -28 -109 -36 l0 -45 q51 -479 472 -652 l-4 -12 q-58 -4 -84 -72 q-129 72 -228 203 q-112 148 -145 319 q-102 -365 -457 -521 l-10 14 q172 93 284 276 q119 194 141 444 l0 71 l-229 0 l-7 29 l214 0 l43 69 Z" /><glyph glyph-name="" unicode="&#x5167;" d="M928 574 q-11 -15 -43 -20 l0 -527 q0 -52 -21 -74 q-27 -28 -104 -36 q-8 44 -26 58 q-31 24 -98 32 l0 15 q116 -8 144 -8 q25 0 25 23 l0 532 l-271 0 q75 -228 263 -315 l-3 -11 q-47 -13 -62 -58 q-160 103 -222 316 q-74 -214 -282 -321 l-13 13 q189 145 234 376 l-252 0 l0 -620 q0 -8 -20 -18 q-23 -11 -47 -11 l-13 0 l0 717 l88 -39 l282 0 q-13 67 -23 164 l-160 0 l-9 29 l147 0 l34 50 l91 -67 q-18 -20 -74 -23 q10 -76 32 -153 l270 0 l40 48 l93 -72 Z" /><glyph glyph-name="" unicode="&#x5169;&#xf978;" d="M335 408 q18 -143 118 -210 l-1 -10 q-28 -14 -39 -69 q-57 52 -81 175 q-38 -118 -124 -175 l-7 9 q89 94 108 278 l0 28 l-64 0 l-5 27 l58 0 l24 36 l63 -47 q-12 -15 -50 -20 l0 -22 ZM537 558 l0 -426 q94 97 116 274 l-1 28 l-68 0 l-6 27 l64 0 l23 37 l65 -48 q-12 -15 -52 -20 l1 -22 q19 -140 127 -207 l0 357 l-269 0 ZM855 828 q65 -49 104 -84 q-3 -16 -27 -16 l-395 0 l0 -141 l259 0 l39 47 l92 -71 q-13 -13 -43 -19 l0 -519 q0 -49 -19 -70 q-25 -27 -97 -34 q-5 40 -21 55 q-24 21 -85 29 l0 15 q99 -7 121 -7 q23 0 23 21 l0 154 q-27 -14 -38 -67 q-67 56 -91 177 q-42 -122 -134 -177 l-6 7 l0 -172 q0 -6 -18 -14 q-21 -10 -49 -10 l-13 0 l0 626 l-266 0 l0 -610 q0 -8 -20 -18 q-21 -11 -44 -11 l-13 0 l0 706 l85 -38 l258 0 l0 141 l-399 0 l-7 28 l747 0 l57 72 Z" /><glyph glyph-name="" unicode="&#x2f0b;&#x516b;" d="M40 -69 q238 232 262 717 l127 -25 q-6 -18 -39 -17 q-61 -477 -337 -686 l-13 11 ZM712 734 q-22 -23 -85 -28 q65 -535 344 -704 l-5 -12 q-56 -14 -79 -71 q-140 117 -209 326 q-57 176 -80 479 l-121 0 l-9 30 l103 0 l38 56 l103 -76 Z" /><glyph glyph-name="" unicode="&#x516c;" d="M414 736 q-7 -20 -39 -17 q-113 -265 -323 -396 l-11 10 q174 173 253 448 l120 -45 ZM640 297 q208 -135 230 -286 q8 -56 -17 -79 q-25 -24 -61 7 q-7 53 -35 123 q-243 -58 -558 -109 q-11 -20 -29 -26 l-39 109 q24 6 32 14 q158 171 248 447 l123 -53 q-9 -20 -39 -17 q-108 -205 -294 -393 q202 11 546 52 q-43 100 -120 204 l13 7 ZM709 784 q-17 -18 -75 -23 q72 -251 322 -354 l-3 -12 q-56 -16 -73 -72 q-217 141 -274 445 l-106 0 l-9 29 l91 0 l34 51 l93 -64 Z" /><glyph glyph-name="" unicode="&#x516d;" d="M783 577 l62 82 q70 -56 113 -96 q-4 -16 -28 -16 l-871 0 l-9 30 l733 0 ZM371 835 q197 -51 212 -163 q6 -41 -20 -60 q-28 -19 -63 7 q-20 111 -139 208 l10 8 ZM456 406 q-8 -15 -41 -10 q-132 -293 -362 -454 l-11 10 q187 191 283 501 l131 -47 ZM621 443 q266 -192 317 -376 q19 -68 -4 -97 q-21 -29 -61 3 q-44 186 -267 462 l15 8 Z" /><glyph glyph-name="" unicode="&#x516e;" d="M420 740 q-10 -17 -39 -12 q-124 -219 -337 -328 l-10 13 q187 142 274 376 l112 -49 ZM732 359 l83 -70 q-12 -12 -41 -15 q-25 -268 -98 -321 q-43 -34 -121 -34 q0 40 -21 54 q-25 19 -113 33 l1 16 q150 -12 164 -12 q27 0 40 11 q45 34 69 264 l-336 0 l-41 -42 l-80 65 q18 11 47 20 q44 93 66 163 l-105 0 l-8 29 l373 0 l50 61 q57 -42 91 -74 q-4 -16 -25 -16 l-289 0 q-43 -109 -75 -177 l324 0 l45 45 ZM745 784 q-13 -17 -70 -22 q71 -189 296 -270 l-2 -12 q-53 -13 -68 -66 q-197 119 -254 353 l-136 0 l-9 29 l123 0 l32 49 l88 -61 Z" /><glyph glyph-name="" unicode="&#x5175;" d="M46 -68 q200 109 303 259 l98 -59 q-9 -16 -38 -8 q-135 -135 -354 -205 l-9 13 ZM590 172 q255 -61 320 -174 q23 -41 7 -65 q-16 -24 -54 -9 q-84 124 -282 237 l9 11 ZM326 247 l295 0 l0 280 l-295 0 l0 -280 ZM861 316 q64 -49 101 -82 q-4 -16 -27 -16 l-887 0 l-8 29 l207 0 l0 518 l95 -40 q235 54 374 117 l86 -80 q-16 -14 -54 1 q-189 -46 -422 -67 l0 -140 l440 0 l53 66 q60 -46 97 -79 q-4 -16 -27 -16 l-188 0 l0 -280 l106 0 l54 69 Z" /><glyph glyph-name="" unicode="&#x5177;" d="M45 -66 q183 86 289 211 l108 -54 q-9 -17 -50 -11 q-141 -105 -341 -159 l-6 13 ZM581 124 q303 -50 340 -149 q12 -35 -17 -50 q-29 -15 -59 11 q-85 99 -269 173 l5 15 ZM323 191 l375 0 l0 122 l-375 0 l0 -122 ZM323 747 l0 -116 l375 0 l0 116 l-375 0 ZM323 459 l0 -116 l375 0 l0 116 l-375 0 ZM698 602 l-375 0 l0 -114 l375 0 l0 114 ZM869 266 q62 -52 98 -88 q-4 -16 -27 -16 l-892 0 l-9 29 l204 0 l0 622 l93 -37 l352 0 l44 47 l89 -71 q-12 -14 -42 -20 l0 -541 l36 0 l54 75 Z" /><glyph glyph-name="" unicode="&#x517c;" d="M251 841 q150 -33 160 -116 q3 -31 -17 -46 q-22 -15 -50 3 q-19 77 -103 151 l10 8 ZM548 271 l0 109 l-121 0 l0 -109 l121 0 ZM427 409 l121 0 l0 105 l-121 0 l0 -105 ZM427 543 l121 0 l0 100 l-121 0 l0 -100 ZM627 514 l0 -105 l130 0 l0 105 l-130 0 ZM757 380 l-130 0 l0 -109 l130 0 l0 109 ZM647 243 q109 -159 323 -220 l-2 -11 q-51 -11 -66 -70 q-186 91 -275 292 l0 -290 q-1 -6 -18 -14 q-21 -10 -48 -10 l-13 0 l0 323 l-121 0 l0 -299 q0 -6 -17 -14 q-21 -10 -48 -10 l-12 0 l0 242 q-117 -138 -309 -223 l-11 15 q181 112 287 289 l-176 0 l-9 28 l218 0 l0 109 l-296 0 l-8 29 l304 0 l0 105 l-208 0 l-9 29 l217 0 l0 100 l-277 0 l-8 28 l492 0 q55 91 88 172 l118 -36 q-6 -21 -38 -18 q-53 -56 -139 -118 l218 0 l49 65 q57 -46 91 -78 q-4 -15 -26 -15 l-291 0 l0 -100 l121 0 l40 43 l87 -66 q-15 -15 -40 -20 l0 -91 l14 0 l42 59 q50 -42 77 -72 q-4 -16 -25 -16 l-108 0 l0 -143 q-1 -6 -23 -14 q-24 -9 -42 -9 l-13 0 l0 29 l-110 0 Z" /><glyph glyph-name="" unicode="&#x518a;" d="M781 405 l0 322 l-139 0 l0 -322 l139 0 ZM566 405 l0 322 l-137 0 l0 -322 l137 0 ZM353 405 l0 322 l-130 0 l0 -322 l130 0 ZM911 476 q48 -51 73 -85 q-3 -16 -25 -16 l-99 0 l0 -349 q0 -52 -18 -73 q-22 -27 -87 -33 q-3 43 -15 58 q-18 20 -65 28 l0 15 q71 -6 86 -6 q20 0 20 20 l0 340 l-139 0 l0 -415 q0 -5 -17 -13 q-20 -10 -46 -10 l-13 0 l0 438 l-137 0 l0 -415 q0 -5 -17 -13 q-20 -10 -46 -10 l-13 0 l0 438 l-130 0 l0 -424 q0 -9 -19 -20 q-21 -11 -46 -11 l-13 0 l0 455 l-113 0 l-8 30 l121 0 l0 390 l85 -39 l541 0 l39 48 l93 -71 q-14 -16 -43 -20 l0 -308 l9 0 l42 71 Z" /><glyph glyph-name="" unicode="&#x518d;" d="M746 229 l0 157 l-211 0 l0 -157 l211 0 ZM253 229 l200 0 l0 157 l-200 0 l0 -157 ZM253 567 l0 -152 l200 0 l0 152 l-200 0 ZM535 567 l0 -152 l211 0 l0 152 l-211 0 ZM888 291 q54 -43 84 -75 q-3 -16 -26 -16 l-120 0 l0 -170 q0 -51 -21 -73 q-27 -29 -106 -37 q-7 44 -27 60 q-26 22 -99 31 l0 16 q122 -9 147 -9 q26 0 26 23 l0 159 l-493 0 l0 -254 q0 -6 -18 -16 q-22 -11 -50 -11 l-13 0 l0 281 l-130 0 l-9 29 l139 0 l0 405 l92 -38 l189 0 l0 131 l-381 0 l-9 28 l724 0 l55 69 q62 -48 101 -81 q-4 -16 -28 -16 l-380 0 l0 -131 l199 0 l41 51 l101 -76 q-13 -17 -50 -23 l0 -319 l16 0 l46 62 Z" /><glyph glyph-name="" unicode="&#x51a0;" d="M818 166 q0 -49 -18 -69 q-24 -26 -92 -32 q-5 38 -20 53 q-24 19 -79 26 l0 15 q94 -6 113 -6 q21 0 21 18 l0 297 l-236 0 l-8 29 l244 0 l0 124 l110 -12 q-4 -21 -35 -26 l0 -86 l27 0 l42 61 q49 -44 77 -74 q-4 -16 -25 -16 l-121 0 l0 -302 ZM550 423 q134 -58 127 -140 q-3 -31 -25 -41 q-24 -11 -49 11 q-4 79 -63 164 l10 6 ZM194 741 q1 -96 -60 -134 q-22 -15 -46 -12 q-25 3 -33 23 q-13 37 29 61 q34 16 56 54 q25 41 22 88 l17 1 q9 -26 12 -52 l628 0 l49 51 l89 -86 q-10 -9 -38 -10 q-54 -58 -128 -99 l-11 7 q22 47 41 108 l-627 0 ZM351 574 l48 63 q54 -44 88 -77 q-4 -15 -27 -15 l-340 0 l-8 29 l239 0 ZM924 28 q39 -11 39 -34 q0 -31 -54 -40 q-59 -11 -250 -11 l-187 0 q-90 0 -119 16 q-30 17 -30 69 l0 359 l-71 0 q-6 -173 -43 -272 q-46 -120 -158 -198 l-8 13 q133 144 130 457 l-119 0 l-8 29 l348 0 l47 61 q53 -43 87 -74 q-4 -16 -27 -16 l-104 0 l0 -343 q0 -19 13 -24 q14 -6 63 -6 l190 0 q119 0 173 2 q22 2 32 18 q13 24 41 142 l12 0 l3 -148 Z" /><glyph glyph-name="" unicode="&#x51a5;" d="M200 730 q5 -98 -53 -143 q-21 -15 -45 -14 q-24 1 -33 20 q-15 35 27 61 q32 20 52 64 q22 49 17 100 l17 1 q11 -34 15 -60 l620 0 l49 49 l88 -83 q-9 -9 -38 -11 q-43 -59 -98 -103 l-11 6 q14 82 17 113 l-624 0 ZM679 362 l0 105 l-354 0 l0 -105 l354 0 ZM325 604 l0 -108 l354 0 l0 108 l-354 0 ZM679 292 l0 41 l-354 0 l0 -28 q0 -6 -21 -15 q-24 -10 -45 -10 l-13 0 l0 389 l84 -36 l340 0 l41 45 l88 -68 q-13 -15 -40 -19 l0 -277 q-1 -6 -24 -14 q-24 -8 -43 -8 l-13 0 ZM431 323 q65 -7 99 -32 q27 -21 26 -48 q-1 -24 -22 -34 q-23 -11 -48 6 q-10 53 -64 101 l9 7 ZM49 -68 q202 86 309 221 l99 -63 q-11 -14 -37 -7 q-141 -116 -362 -164 l-9 13 ZM572 135 q249 -28 320 -133 q26 -38 11 -63 q-15 -26 -54 -14 q-90 111 -284 198 l7 12 ZM848 269 q62 -47 101 -81 q-3 -16 -27 -16 l-852 0 l-8 30 l732 0 l54 67 Z" /><glyph glyph-name="" unicode="&#x51b0;" d="M73 772 q163 -41 173 -131 q3 -33 -20 -48 q-23 -15 -53 6 q-22 86 -110 165 l10 8 ZM568 533 q-8 -10 -38 -13 q-66 -336 -281 -489 l-12 13 q167 167 213 485 l-145 0 l-9 27 q-94 -235 -105 -268 q-17 -57 -16 -85 q0 -16 16 -70 q14 -50 12 -95 q-3 -71 -61 -71 q-31 0 -37 49 q25 167 -13 191 q-19 12 -50 15 l0 21 l45 0 q17 0 28 19 q20 34 207 409 l18 -5 l-43 -109 l148 0 l44 46 l79 -70 ZM964 598 q-11 -16 -38 -10 q-117 -106 -213 -169 q81 -201 265 -314 l-4 -10 q-52 -11 -74 -77 q-199 184 -248 549 l0 -536 q0 -52 -20 -74 q-26 -28 -102 -35 q-6 40 -27 56 q-26 20 -98 31 l0 15 q121 -9 145 -9 q25 0 25 23 l0 794 l113 -13 q-5 -22 -36 -27 l0 -133 q18 -124 53 -219 q92 109 154 222 l105 -64 Z" /><glyph glyph-name="" unicode="&#x51b7;" d="M76 797 q171 -41 184 -135 q4 -35 -19 -50 q-25 -17 -56 5 q-20 85 -118 172 l9 8 ZM348 706 q-156 -457 -151 -439 q-18 -60 -17 -93 q0 -16 17 -69 q15 -51 13 -97 q-3 -71 -63 -71 q-33 0 -39 49 q25 166 -13 192 q-18 11 -50 14 l0 21 l45 0 q16 0 26 22 q20 36 215 476 l17 -5 ZM777 375 l84 -81 q-9 -8 -41 -11 q-68 -107 -198 -207 q103 -57 111 -119 q3 -25 -13 -36 q-15 -12 -41 -2 q-79 120 -270 216 l9 11 q102 -21 178 -57 q87 108 132 209 l-392 0 l-8 29 l400 0 l49 48 ZM699 552 q54 -44 88 -76 q-4 -16 -27 -16 l-332 0 l-7 29 l229 0 l49 63 ZM666 810 q-6 -15 -39 -19 q120 -185 332 -278 l-1 -15 q-40 -13 -54 -68 q-207 142 -292 350 q-107 -229 -342 -357 l-8 14 q208 159 278 402 l126 -29 Z" /><glyph glyph-name="" unicode="&#x51cb;" d="M72 799 q161 -45 168 -135 q3 -34 -21 -48 q-24 -14 -54 8 q-16 82 -103 167 l10 8 ZM311 652 q-122 -378 -124 -386 q-15 -59 -14 -87 q0 -16 17 -70 q15 -51 13 -98 q-3 -71 -63 -71 q-33 0 -39 50 q25 166 -12 192 q-14 11 -48 14 l0 22 l43 0 q16 0 26 20 q19 35 183 418 l18 -4 ZM524 321 l0 -160 l176 0 l0 160 l-176 0 ZM524 131 l0 -35 q0 -5 -17 -13 q-19 -8 -38 -8 l-10 0 l0 306 l69 -31 l163 0 l35 37 l77 -58 q-11 -13 -39 -18 l0 -204 q-1 -5 -19 -12 q-20 -8 -35 -8 l-10 0 l0 44 l-176 0 ZM772 510 q32 -28 59 -55 l0 118 q-3 -2 -11 -2 l-174 0 l0 -119 l86 0 l40 58 ZM952 744 q-15 -15 -43 -20 l0 -698 q0 -51 -19 -72 q-24 -28 -94 -34 q-3 40 -20 57 q-28 22 -80 28 l0 16 q92 -7 113 -7 q22 0 22 21 l0 389 q-3 -1 -10 -1 l-401 0 l-8 29 l165 0 l0 119 l-157 0 l-8 29 l165 0 l0 127 l102 -11 q-5 -21 -33 -26 l0 -90 l87 0 l40 53 q32 -27 58 -52 l0 138 l-426 0 l0 -283 q0 -176 -22 -279 q-35 -160 -133 -260 l-14 9 q93 162 93 529 l0 349 l89 -36 l403 0 l40 47 l91 -71 Z" /><glyph glyph-name="" unicode="&#x51dd;" d="M597 736 l-9 29 l251 0 l45 44 l80 -75 q-9 -9 -40 -11 q-61 -64 -139 -112 q56 -45 43 -88 q-5 -17 -20 -22 q-16 -5 -36 6 q-30 70 -135 158 l10 9 q70 -17 119 -49 q38 50 71 111 l-240 0 ZM385 518 q-48 0 -63 14 q-14 13 -14 50 l0 250 l98 -11 q-2 -18 -29 -23 l0 -88 l108 0 l39 50 q44 -36 72 -64 q-4 -16 -25 -16 l-194 0 l0 -85 q0 -16 27 -16 l60 0 q49 0 57 1 q9 0 19 2 q7 0 19 4 l13 -1 q30 -11 30 -28 q0 -22 -29 -30 q-32 -9 -116 -9 l-72 0 ZM79 801 q150 -54 149 -142 q-1 -33 -25 -44 q-24 -12 -52 12 q-10 79 -83 168 l11 6 ZM275 631 q-89 -328 -97 -362 q-13 -55 -12 -85 q1 -15 17 -71 q15 -51 13 -97 q-3 -70 -62 -70 q-32 0 -38 48 q26 168 -11 192 q-16 12 -47 15 l0 21 l42 0 q16 0 25 20 q16 34 153 393 l17 -4 ZM437 201 q-2 -17 -6 -32 q107 -46 103 -108 q-2 -23 -20 -31 q-19 -8 -39 8 q-10 43 -51 103 q-42 -149 -202 -230 l-13 16 q138 94 161 274 l-122 0 l-8 29 l133 0 q5 55 5 141 l-40 0 q-36 -74 -83 -115 l-16 7 q48 97 63 240 l107 -28 q-7 -21 -36 -21 q-12 -33 -21 -53 l118 0 l38 50 q45 -36 73 -64 q-4 -16 -25 -16 l-106 0 q-2 -87 -8 -141 l44 0 l36 51 q43 -36 69 -64 q-4 -16 -25 -16 l-129 0 ZM798 23 q42 -12 94 -12 l77 0 l0 -13 q-31 -6 -31 -62 l-53 0 q-95 0 -151 45 q-61 48 -92 160 q-40 -142 -161 -226 l-14 15 q130 132 132 432 l100 -10 q-4 -21 -32 -25 q-7 -105 -16 -147 q30 -81 77 -119 l0 385 l-144 0 l-9 29 l289 0 l39 40 l72 -70 q-7 -7 -37 -10 q-44 -57 -95 -100 l-15 8 q17 36 39 103 l-69 0 l0 -174 l49 0 l40 52 q47 -37 73 -66 q-3 -16 -24 -16 l-138 0 l0 -219 Z" /><glyph glyph-name="" unicode="&#x51f0;" d="M624 393 l0 87 l-255 0 l0 -87 l255 0 ZM369 592 l0 -83 l255 0 l0 83 l-255 0 ZM727 65 q54 -41 88 -72 q-4 -16 -27 -16 l-592 0 l-8 30 l268 0 l0 118 l-186 0 l-8 28 l194 0 l0 102 l-190 0 l-8 30 l367 0 l40 51 q-15 -6 -30 -6 l-11 0 l0 34 l-255 0 l0 -26 q0 -6 -20 -15 q-22 -10 -43 -10 l-11 0 l0 342 l79 -34 l61 0 q15 98 16 111 l117 -19 q-5 -24 -36 -24 q-9 -14 -56 -68 l138 0 l38 41 l84 -63 q-11 -13 -38 -18 l0 -227 q-3 -8 -27 -16 q56 -46 78 -67 q-1 -16 -25 -16 l-190 0 l0 -102 l101 0 l43 53 q49 -38 79 -65 q-4 -16 -26 -16 l-197 0 l0 -118 l144 0 l49 58 ZM954 13 q29 -71 6 -84 q-49 -30 -101 51 q-101 137 -93 763 l-536 0 l0 -198 q0 -432 -182 -625 l-15 9 q118 207 118 615 l0 268 l93 -41 l511 0 l45 50 l91 -77 q-10 -13 -44 -19 q-29 -532 62 -656 q11 -16 18 3 q7 22 16 57 l15 55 l11 -1 l-15 -170 Z" /><glyph glyph-name="" unicode="&#x51fa;" d="M922 329 q-3 -21 -35 -26 l0 -350 q0 -7 -21 -15 q-22 -9 -43 -9 l-14 0 l0 80 l-611 0 l-29 -46 l-86 58 q10 11 30 24 l0 301 l118 -11 q-3 -20 -40 -25 l0 -272 l265 0 l0 389 l-210 0 l-28 -43 l-85 55 q12 13 30 24 l0 285 l117 -12 q-3 -19 -41 -24 l0 -256 l217 0 l0 380 l117 -13 q-5 -23 -36 -28 l0 -339 l222 0 l0 291 l113 -12 q-3 -21 -35 -26 l0 -313 q0 -6 -21 -14 q-23 -8 -43 -8 l-14 0 l0 53 l-222 0 l0 -389 l272 0 l0 303 l113 -12 Z" /><glyph glyph-name="" unicode="&#x2f11;&#x5200;" d="M919 694 q-14 -14 -44 -18 q-13 -611 -80 -691 q-47 -54 -137 -54 q2 43 -21 63 q-27 21 -120 38 l1 16 q143 -13 166 -13 q27 0 43 15 q51 49 65 639 l-303 0 q-12 -266 -76 -410 q-97 -220 -361 -358 l-13 16 q223 151 303 367 q51 140 55 385 l-304 0 l-9 30 l697 0 l50 52 l88 -77 Z" /><glyph glyph-name="" unicode="&#x5206;" d="M435 742 q-6 -17 -37 -15 q-124 -238 -351 -351 l-9 12 q199 149 281 401 l116 -47 ZM718 485 l84 -71 q-12 -13 -40 -16 q-18 -373 -82 -433 q-43 -39 -121 -39 q0 41 -21 57 q-24 19 -106 32 l1 17 q106 -11 151 -11 q27 0 39 11 q42 40 59 377 l-224 0 q-17 -153 -81 -253 q-90 -141 -296 -234 l-12 16 q172 100 243 237 q48 94 57 234 l-158 0 l-9 30 l470 0 l46 46 ZM711 778 q-15 -17 -70 -22 q80 -190 320 -278 l-2 -12 q-53 -13 -68 -66 q-212 128 -278 361 l-112 0 l-9 29 l97 0 l33 50 l89 -62 Z" /><glyph glyph-name="" unicode="&#x5217;&#xf99c;" d="M505 823 q60 -49 97 -82 q-4 -16 -27 -16 l-232 0 q-25 -86 -63 -166 l175 0 l48 50 l83 -76 q-10 -12 -41 -15 q-121 -451 -484 -600 l-9 14 q314 173 408 599 l-194 0 q-29 -56 -64 -106 q142 -41 145 -121 q1 -30 -21 -42 q-22 -12 -49 7 q-15 65 -88 137 q-66 -93 -149 -159 l-11 10 q167 202 214 468 l-188 0 l-8 28 l405 0 l53 70 ZM706 159 q0 -7 -19 -15 q-21 -10 -40 -10 l-14 0 l0 622 l106 -10 q-5 -21 -33 -26 l0 -561 ZM946 807 q-3 -23 -37 -28 l0 -750 q0 -53 -20 -74 q-26 -28 -101 -36 q-7 41 -25 57 q-25 22 -94 30 l0 16 q114 -8 137 -8 q25 0 25 21 l0 784 l115 -12 Z" /><glyph glyph-name="" unicode="&#x521d;" d="M147 842 q154 -33 160 -119 q2 -31 -20 -45 q-24 -15 -54 5 q-16 75 -95 152 l9 7 ZM485 430 q-16 -16 -41 -6 q-43 -42 -94 -70 q111 -48 110 -113 q0 -25 -19 -35 q-20 -9 -45 6 q-27 64 -120 145 l0 -410 q0 -7 -18 -17 q-22 -11 -48 -11 l-14 0 l0 404 q-74 -71 -163 -125 l-12 11 q207 171 304 406 l-282 0 l-9 29 l289 0 l50 48 l82 -81 q-10 -9 -44 -12 q-46 -92 -135 -194 l0 -26 q54 -16 46 -13 q46 51 86 126 l77 -62 ZM973 700 q-11 -12 -44 -18 q-12 -625 -77 -706 q-45 -52 -123 -52 q2 45 -16 60 q-19 18 -92 33 l1 17 q100 -10 127 -10 q24 0 38 15 q51 49 64 655 l-169 0 q-19 -335 -76 -485 q-75 -197 -270 -289 l-12 15 q152 94 213 297 q45 152 58 462 l-170 0 l-9 30 l424 0 l48 50 l85 -74 Z" /><glyph glyph-name="" unicode="&#x5225;" d="M186 742 l0 -219 l259 0 l0 219 l-259 0 ZM186 463 q0 -7 -17 -16 q-19 -11 -44 -11 l-13 0 l0 371 l87 -36 l237 0 l40 43 l86 -65 q-13 -15 -40 -19 l0 -254 q-1 -6 -23 -14 q-23 -8 -41 -8 l-13 0 l0 40 l-259 0 l0 -31 ZM488 395 l80 -66 q-10 -13 -39 -16 q-13 -304 -71 -355 q-37 -33 -102 -33 q0 40 -16 52 q-19 16 -79 27 l1 16 q91 -8 111 -8 q23 0 34 10 q35 32 49 301 l-200 0 q-39 -284 -208 -406 l-12 15 q144 150 153 530 l110 -11 q-3 -22 -33 -26 l-7 -72 l187 0 l42 42 ZM708 155 q0 -7 -20 -15 q-21 -10 -41 -10 l-14 0 l0 625 l112 -12 q-3 -24 -37 -28 l0 -560 ZM949 811 q-5 -23 -37 -27 l0 -752 q0 -53 -20 -75 q-26 -28 -101 -36 q-7 43 -23 59 q-25 19 -92 30 l0 15 q110 -8 132 -8 q24 0 24 21 l0 786 l117 -13 Z" /><glyph glyph-name="" unicode="&#x522a;" d="M511 432 l0 310 l-75 0 l0 -310 l75 0 ZM376 432 l0 310 l-73 0 l0 -310 l73 0 ZM244 432 l0 310 l-72 0 l0 -310 l72 0 ZM751 156 q0 -7 -18 -15 q-18 -9 -37 -9 l-13 0 l0 274 q-6 -3 -15 -3 l-89 0 l0 -377 q0 -50 -13 -70 q-17 -25 -68 -31 q-2 43 -11 57 q-13 19 -42 25 l0 16 q41 -4 52 -4 q14 0 14 17 l0 367 l-75 0 l0 -429 q0 -4 -14 -11 q-17 -9 -37 -9 l-9 0 l0 449 l-73 0 l0 -429 q0 -4 -14 -11 q-16 -9 -36 -9 l-9 0 l0 449 l-72 0 l0 -460 q0 -5 -15 -13 q-18 -10 -41 -10 l-10 0 l0 483 l-71 0 l-8 29 l79 0 l0 372 l79 -33 l316 0 l35 44 l87 -67 q-15 -15 -44 -19 l0 -297 l6 0 l39 58 q33 -31 59 -59 l0 325 l103 -11 q-3 -22 -35 -26 l0 -563 ZM951 810 q-5 -23 -36 -27 l0 -759 q0 -50 -18 -71 q-24 -27 -92 -34 q-5 40 -22 55 q-22 20 -80 28 l0 16 q95 -8 115 -8 q22 0 22 21 l0 791 l111 -12 Z" /><glyph glyph-name="" unicode="&#x5236;" d="M537 570 q55 -44 91 -76 q-4 -16 -27 -16 l-242 0 l0 -119 l115 0 l37 44 l90 -66 q-11 -15 -42 -21 l0 -224 q0 -48 -15 -67 q-20 -26 -77 -32 q-2 40 -13 56 q-13 16 -48 23 l0 16 q48 -4 62 -4 q16 0 16 16 l0 231 l-125 0 l0 -381 q0 -9 -19 -19 q-20 -11 -41 -11 l-15 0 l0 411 l-123 0 l0 -319 q0 -6 -19 -15 q-22 -9 -43 -9 l-11 0 l0 406 l79 -35 l117 0 l0 119 l-245 0 l-8 30 l253 0 l0 133 l-128 0 q-40 -64 -91 -110 l-14 9 q59 110 91 269 l110 -33 q-7 -20 -37 -20 q-19 -47 -42 -86 l111 0 l0 167 l112 -13 q-5 -23 -37 -28 l0 -126 l100 0 l49 63 q55 -45 89 -77 q-4 -15 -27 -15 l-211 0 l0 -133 l129 0 l49 62 ZM733 153 q0 -8 -19 -16 q-19 -9 -39 -9 l-14 0 l0 630 l107 -11 q-5 -22 -35 -26 l0 -568 ZM952 811 q-5 -23 -36 -27 l0 -759 q0 -51 -18 -72 q-24 -27 -93 -34 q-3 39 -21 56 q-22 20 -80 28 l0 15 q95 -7 115 -7 q22 0 22 20 l0 792 l111 -12 Z" /><glyph glyph-name="" unicode="&#x5237;" d="M168 742 l0 -145 l328 0 l0 145 l-328 0 ZM168 568 l0 -76 q0 -380 -126 -537 l-15 10 q68 157 68 527 l0 314 l86 -36 l305 0 l39 43 l86 -65 q-13 -13 -41 -19 l0 -183 q-1 -6 -22 -15 q-22 -9 -40 -9 l-12 0 l0 46 l-328 0 ZM537 450 l87 -65 q-15 -15 -44 -19 l0 -263 q0 -48 -14 -67 q-17 -25 -68 -31 q0 38 -11 54 q-12 17 -43 24 l0 16 q41 -4 54 -4 q14 0 14 16 l0 268 l-95 0 l0 -434 q0 -7 -18 -15 q-20 -9 -38 -9 l-13 0 l0 458 l-90 0 l0 -356 q0 -5 -15 -13 q-19 -10 -42 -10 l-11 0 l0 442 l80 -34 l78 0 l0 127 l105 -11 q-3 -23 -36 -28 l0 -88 l85 0 l35 42 ZM737 157 q0 -7 -19 -15 q-21 -9 -41 -9 l-14 0 l0 622 l110 -11 q-5 -23 -36 -28 l0 -559 ZM953 813 q-5 -23 -36 -27 l0 -759 q0 -51 -18 -72 q-24 -27 -94 -34 q-5 40 -21 56 q-25 20 -83 29 l0 15 q98 -8 118 -8 q23 0 23 21 l0 791 l111 -12 Z" /><glyph glyph-name="" unicode="&#x523a;&#xf9ff;" d="M528 756 q58 -46 94 -79 q-4 -16 -27 -16 l-231 0 l0 -108 l113 0 l35 42 l89 -65 q-12 -14 -43 -19 l0 -143 q0 -45 -15 -63 q-19 -23 -76 -29 q-2 37 -14 49 q-13 17 -54 23 l0 14 q56 -4 72 -4 q16 0 16 17 l0 149 l-123 0 l0 -256 q182 -52 208 -148 q10 -35 -10 -52 q-20 -17 -51 2 q-30 87 -147 178 l0 -298 q0 -9 -19 -19 q-20 -11 -41 -11 l-15 0 l0 294 q-110 -149 -252 -235 l-10 15 q185 150 262 394 l0 136 l-119 0 l0 -244 q0 -6 -16 -14 q-20 -10 -45 -10 l-13 0 l0 333 l87 -36 l106 0 l0 108 l-237 0 l-8 29 l245 0 l0 147 l112 -13 q-5 -23 -37 -28 l0 -106 l113 0 l51 66 ZM729 152 q0 -7 -20 -16 q-21 -9 -41 -9 l-15 0 l0 628 l112 -11 q-5 -23 -36 -27 l0 -565 ZM951 813 q-3 -23 -35 -28 l0 -757 q0 -51 -19 -73 q-25 -27 -96 -34 q-5 41 -22 57 q-23 21 -82 29 l0 15 q98 -7 119 -7 q23 0 23 21 l0 789 l112 -12 Z" /><glyph glyph-name="" unicode="&#x523b;" d="M249 842 q72 -15 108 -49 q29 -28 28 -60 q-2 -29 -26 -41 q-25 -12 -52 9 q-8 71 -68 135 l10 6 ZM35 -63 q315 173 466 471 l110 -56 q-10 -16 -41 -11 q-68 -102 -149 -182 q165 -69 176 -165 q4 -35 -19 -50 q-23 -14 -54 7 q-27 81 -124 189 q-149 -137 -356 -220 l-9 17 ZM537 751 q56 -45 91 -78 q-4 -16 -27 -16 l-340 0 l93 -43 q-9 -16 -37 -13 q-75 -82 -162 -142 q149 3 207 5 q41 64 72 131 l106 -52 q-8 -16 -40 -11 q-161 -266 -443 -395 l-9 16 q178 112 294 280 q-100 -23 -200 -41 q-13 -14 -27 -19 l-32 91 q35 5 43 11 q56 44 116 182 l-198 0 l-8 30 l450 0 l51 64 ZM726 160 q0 -7 -19 -15 q-21 -9 -41 -9 l-14 0 l0 585 l111 -12 q-5 -23 -37 -27 l0 -522 ZM953 813 q-3 -23 -37 -27 l0 -758 q0 -52 -19 -74 q-26 -28 -100 -36 q-5 42 -23 59 q-24 20 -89 29 l0 16 q107 -8 128 -8 q25 0 25 21 l0 791 l115 -13 Z" /><glyph glyph-name="" unicode="&#x5247;" d="M29 -68 q111 87 188 240 l105 -57 q-10 -21 -41 -12 q-97 -123 -241 -184 l-11 13 ZM355 162 q173 -60 187 -160 q5 -37 -17 -53 q-23 -17 -54 5 q-22 98 -126 200 l10 8 ZM428 249 l0 147 l-240 0 l0 -147 l240 0 ZM188 571 l0 -146 l240 0 l0 146 l-240 0 ZM188 745 l0 -145 l240 0 l0 145 l-240 0 ZM459 820 l90 -70 q-13 -13 -43 -19 l0 -538 q-1 -7 -23 -16 q-24 -10 -43 -10 l-12 0 l0 53 l-240 0 l0 -44 q0 -6 -17 -15 q-21 -10 -47 -10 l-13 0 l0 661 l89 -39 l218 0 l41 47 ZM707 151 q0 -7 -20 -16 q-20 -10 -41 -10 l-14 0 l0 630 l112 -11 q-3 -23 -37 -27 l0 -566 ZM950 811 q-5 -23 -36 -27 l0 -752 q0 -53 -20 -75 q-26 -28 -101 -36 q-6 42 -25 59 q-24 19 -91 30 l0 15 q110 -8 132 -8 q25 0 25 21 l0 786 l116 -13 Z" /><glyph glyph-name="" unicode="&#x524d;" d="M252 837 q154 -33 159 -121 q2 -32 -22 -46 q-24 -15 -54 6 q-14 80 -94 154 l11 7 ZM390 210 l0 129 l-176 0 l0 -61 q0 -45 -1 -68 l177 0 ZM214 489 l0 -121 l176 0 l0 121 l-176 0 ZM418 563 l91 -69 q-12 -14 -43 -20 l0 -454 q0 -48 -17 -68 q-21 -25 -84 -31 q-3 38 -17 53 q-18 18 -63 25 l0 15 q68 -5 86 -5 q19 0 19 19 l0 153 l-179 0 q-17 -184 -133 -274 l-12 10 q71 107 71 360 l0 277 l91 -36 l152 0 l38 45 ZM654 113 q0 -6 -20 -14 q-21 -9 -40 -9 l-15 0 l0 445 l112 -12 q-4 -23 -37 -27 l0 -383 ZM774 560 l112 -12 q-3 -22 -35 -26 l0 -498 q0 -50 -19 -71 q-25 -26 -98 -33 q-5 40 -23 53 q-23 18 -87 28 l0 15 q105 -8 127 -8 q23 0 23 20 l0 532 ZM864 720 q62 -48 100 -83 q-4 -16 -27 -16 l-890 0 l-9 30 l534 0 q51 89 89 189 l123 -34 q-7 -20 -39 -19 q-55 -66 -141 -136 l206 0 l54 69 Z" /><glyph glyph-name="" unicode="&#x525b;" d="M420 149 l-163 0 l-24 -29 l-67 42 q12 10 30 20 l0 243 l96 -12 q-3 -19 -42 -25 l0 -210 l58 0 l0 310 l-135 0 l-8 29 l247 0 l38 51 q44 -36 70 -64 q-4 -16 -24 -16 l-133 0 l0 -310 l57 0 l0 244 l82 -9 q-3 -18 -28 -22 l0 -279 q0 -6 -14 -13 q-15 -7 -29 -7 l-11 0 l0 57 ZM208 709 q106 -63 101 -134 q-2 -27 -20 -36 q-19 -9 -39 10 q-5 69 -54 155 l12 5 ZM497 680 q-9 -20 -37 -20 q-48 -82 -85 -130 l-18 7 q19 67 43 176 l97 -33 ZM556 817 l87 -67 q-14 -16 -43 -20 l0 -709 q0 -49 -18 -69 q-23 -26 -91 -33 q-5 41 -23 53 q-24 19 -84 27 l0 16 q101 -7 122 -7 q23 0 23 21 l0 714 l-380 0 l0 -794 q0 -8 -17 -18 q-18 -10 -40 -10 l-13 0 l0 887 l76 -35 l364 0 l37 44 ZM746 161 q0 -6 -19 -14 q-19 -8 -37 -8 l-13 0 l0 576 l105 -12 q-3 -23 -36 -27 l0 -515 ZM945 813 q-5 -23 -37 -28 l0 -760 q0 -50 -18 -70 q-23 -27 -91 -34 q-3 40 -20 55 q-22 19 -81 27 l0 15 q95 -7 114 -7 q23 0 23 20 l0 794 l110 -12 Z" /><glyph glyph-name="" unicode="&#x525d;" d="M423 612 l24 110 l-237 0 q-20 -68 -36 -110 l249 0 ZM567 549 q51 -46 80 -78 q-4 -16 -26 -16 l-252 0 l0 -199 q24 -6 35 -10 q60 91 102 182 l100 -57 q-9 -20 -37 -11 q-65 -65 -144 -121 q154 -57 175 -140 q7 -31 -11 -46 q-19 -15 -48 1 q-42 83 -172 181 l0 -210 q0 -49 -17 -71 q-23 -29 -84 -35 q-2 39 -15 54 q-19 20 -66 27 l0 15 q72 -5 89 -5 q18 0 18 17 l0 185 q-93 -83 -186 -158 q-2 -20 -16 -28 l-59 83 q79 33 261 127 l0 219 l-247 0 l-8 29 l355 0 l22 98 l-243 0 l-36 -37 l-79 61 q20 13 43 20 q46 134 62 215 l109 -18 q-8 -24 -39 -24 l-14 -48 l224 0 l38 39 l79 -64 q-9 -10 -35 -13 l-51 -229 l48 0 l45 65 ZM103 420 q137 -53 138 -134 q0 -30 -21 -42 q-22 -11 -47 9 q-8 72 -81 160 l11 7 ZM732 152 q0 -6 -19 -15 q-20 -9 -39 -9 l-14 0 l0 630 l107 -11 q-3 -23 -35 -27 l0 -568 ZM949 811 q-3 -23 -37 -27 l0 -759 q0 -51 -18 -72 q-23 -27 -92 -34 q-3 41 -20 56 q-21 20 -81 28 l0 15 q95 -7 115 -7 q22 0 22 20 l0 792 l111 -12 Z" /><glyph glyph-name="" unicode="&#x5275;" d="M215 623 q-88 -81 -178 -127 l-11 11 q171 132 254 338 l122 -30 q-6 -18 -40 -19 q208 -50 234 -145 q9 -34 -13 -51 q-21 -18 -48 0 q-46 105 -182 185 q-56 -85 -132 -156 l161 0 l44 54 q49 -38 80 -67 q-4 -16 -27 -16 l-258 0 l-6 23 ZM485 22 l0 147 l-233 0 l0 -147 l233 0 ZM219 498 l0 -77 l263 0 l0 77 l-263 0 ZM482 313 l0 78 l-263 0 l0 -1 q0 -23 -2 -77 l265 0 ZM515 241 l86 -65 q-13 -15 -40 -19 l0 -202 q-1 -4 -23 -12 q-24 -9 -41 -9 l-12 0 l0 59 l-233 0 l0 -48 q0 -7 -17 -15 q-19 -10 -45 -10 l-12 0 l0 210 q-44 -108 -133 -177 l-12 10 q112 147 112 427 l0 173 l87 -35 l240 0 l40 43 l88 -66 q-13 -15 -43 -21 l0 -210 q-1 -5 -23 -13 q-23 -9 -40 -9 l-12 0 l0 31 l-268 0 q-3 -30 -9 -59 l59 -25 l212 0 l39 42 ZM734 150 q0 -8 -19 -17 q-19 -9 -39 -9 l-14 0 l0 630 l107 -10 q-5 -22 -35 -27 l0 -567 ZM952 811 q-5 -23 -36 -27 l0 -759 q0 -51 -18 -72 q-24 -28 -93 -34 q-5 40 -22 56 q-24 20 -80 28 l0 15 q95 -7 115 -7 q22 0 22 20 l0 792 l112 -12 Z" /><glyph glyph-name="" unicode="&#x5287;" d="M613 284 q-12 -19 -39 -12 q-57 -48 -103 -74 q141 -38 158 -118 q7 -30 -10 -45 q-18 -15 -45 1 q-25 80 -127 146 q29 -67 23 -135 q-6 -65 -39 -96 q-30 -30 -108 -30 q0 30 -16 42 q-16 12 -74 23 l0 15 q99 -6 121 -6 q17 0 24 8 q28 31 25 106 q-112 -82 -251 -128 l-7 16 q152 73 243 194 q-4 14 -7 21 q-93 -71 -203 -108 l-6 14 q113 61 176 157 l-6 9 q-61 -46 -153 -81 l-11 17 q84 50 144 125 l-131 0 l-8 30 l304 0 l42 52 q49 -37 79 -66 q-3 -16 -26 -16 l-170 0 q-20 -23 -50 -46 q48 -41 75 -93 l6 -2 q44 56 82 131 l88 -51 ZM371 607 q-3 -18 -27 -23 l0 -34 l66 7 l29 44 q42 -28 66 -47 q-2 -17 -22 -19 l-139 -14 l0 -25 q0 -15 27 -15 l70 0 q54 0 64 1 l16 1 q9 0 19 4 l13 -1 q30 -9 30 -24 q0 -20 -29 -26 q-29 -7 -119 -7 l-78 0 q-47 0 -62 12 q-14 10 -14 43 l0 31 l-89 -9 l-11 28 l100 10 l0 73 l90 -10 ZM568 693 l77 -73 q-8 -8 -37 -10 q-36 -46 -74 -73 l-13 6 q7 36 12 79 l-372 0 l0 -217 q0 -344 -110 -486 l-14 9 q53 138 53 476 l0 282 l84 -35 l110 0 l0 188 l112 -11 q-3 -23 -36 -27 l0 -60 l104 0 l48 59 q54 -42 87 -73 q-4 -16 -26 -16 l-213 0 l0 -60 l166 0 l42 42 ZM736 157 q0 -8 -19 -16 q-19 -9 -38 -9 l-14 0 l0 623 l107 -11 q-5 -23 -36 -27 l0 -560 ZM949 813 q-3 -23 -37 -27 l0 -763 q0 -50 -18 -71 q-23 -27 -92 -34 q-3 41 -21 56 q-23 20 -80 28 l0 15 q95 -7 115 -7 q22 0 22 20 l0 795 l111 -12 Z" /><glyph glyph-name="" unicode="&#x5288;" d="M632 849 q121 -22 117 -87 q-2 -24 -22 -34 q-22 -10 -46 7 q-7 54 -58 107 l9 7 ZM191 740 l0 -51 q0 -34 -1 -53 l201 0 l0 104 l-200 0 ZM241 493 l0 -131 l156 0 l0 131 l-156 0 ZM172 507 q-33 -132 -119 -208 l-13 11 q81 130 81 379 l0 115 l84 -35 l176 0 l38 39 l83 -61 q-13 -13 -40 -19 l0 -136 q-1 -5 -21 -13 q-22 -8 -38 -8 l-12 0 l0 36 l-203 0 q-4 -38 -7 -57 l68 -28 l139 0 l37 38 l78 -59 q-11 -13 -35 -17 l0 -169 q-1 -5 -21 -13 q-22 -8 -39 -8 l-11 0 l0 39 l-156 0 l0 -31 q0 -5 -16 -13 q-19 -9 -42 -9 l-11 0 l0 227 ZM830 284 l83 -67 q-12 -13 -40 -16 q-17 -206 -79 -252 q-42 -29 -111 -28 q0 39 -21 53 q-23 19 -99 30 l1 16 q150 -10 144 -10 q22 0 35 9 q33 27 51 193 l-293 0 q-39 -126 -151 -197 q-106 -67 -298 -96 l-5 15 q299 77 354 278 l-313 0 l-9 29 l707 0 l44 43 ZM890 601 q45 -35 73 -63 q-3 -16 -25 -16 l-196 0 l0 -90 l84 0 l39 50 q46 -35 73 -63 q-4 -16 -25 -16 l-171 0 l0 -112 q0 -5 -17 -11 q-19 -7 -44 -7 l-13 0 l0 130 l-144 0 l-7 29 l151 0 l0 90 l-164 0 l-8 30 l232 0 q32 68 54 137 l-268 0 l-8 30 l318 0 l43 55 q49 -39 79 -69 q-3 -16 -25 -16 l-135 0 l101 -27 q-7 -20 -38 -19 q-31 -39 -88 -91 l89 0 l40 49 ZM560 683 q115 -26 108 -90 q-3 -23 -23 -32 q-22 -10 -45 8 q-4 54 -50 108 l10 6 Z" /><glyph glyph-name="" unicode="&#x528d;" d="M404 815 q-6 -18 -43 -19 q216 -54 241 -151 q9 -35 -13 -53 q-22 -17 -49 2 q-47 112 -185 193 q-128 -193 -317 -288 l-10 11 q173 137 252 337 l124 -32 ZM248 308 l0 144 l-88 0 l0 -144 l88 0 ZM248 248 l0 30 l-88 0 l0 -28 q0 -5 -13 -12 q-17 -9 -38 -9 l-10 0 l0 284 l74 -32 l67 0 l32 35 l73 -55 q-9 -11 -35 -16 l0 -179 q-1 -5 -19 -11 q-19 -7 -34 -7 l-9 0 ZM437 654 q53 -41 86 -72 q-4 -16 -26 -16 l-300 0 l-8 29 l201 0 l47 59 ZM282 214 q-5 -21 -35 -21 q-14 -40 -22 -58 q105 -34 100 -97 q-2 -23 -21 -32 q-19 -9 -41 8 q-4 47 -48 98 q-62 -128 -166 -189 l-14 12 q112 109 144 307 l103 -28 ZM538 207 q-7 -20 -38 -19 q-10 -30 -28 -66 q139 -55 147 -135 q3 -30 -16 -42 q-20 -13 -46 5 q-17 62 -97 150 q-71 -122 -195 -176 l-12 13 q139 102 179 304 l106 -34 ZM520 308 l0 144 l-91 0 l0 -144 l91 0 ZM546 517 l75 -57 q-9 -10 -38 -17 l0 -177 q-1 -5 -19 -11 q-19 -7 -34 -7 l-10 0 l0 30 l-91 0 l0 -16 q0 -5 -14 -12 q-17 -8 -38 -8 l-10 0 l0 271 l75 -32 l69 0 l35 36 ZM737 153 q0 -7 -19 -16 q-21 -9 -40 -9 l-14 0 l0 630 l107 -11 q-3 -22 -34 -26 l0 -568 ZM953 811 q-3 -23 -36 -27 l0 -759 q0 -51 -18 -72 q-23 -27 -92 -34 q-3 39 -21 56 q-21 20 -80 28 l0 15 q95 -7 115 -7 q22 0 22 20 l0 792 l110 -12 Z" /><glyph glyph-name="" unicode="&#x2f12;&#x529b;&#xf98a;" d="M907 560 q-11 -11 -44 -17 q-15 -496 -84 -569 q-44 -47 -133 -47 q2 42 -22 60 q-32 23 -122 37 l1 17 q121 -13 171 -13 q27 0 41 13 q50 45 66 514 l-282 0 q-17 -220 -99 -355 q-104 -172 -344 -281 l-11 17 q197 115 284 281 q70 132 84 338 l-312 0 l-9 30 l322 0 q4 65 4 255 l125 -13 q-5 -24 -36 -28 q-2 -145 -6 -214 l270 0 l48 51 l88 -76 Z" /><glyph glyph-name="" unicode="&#x529f;" d="M485 309 q-183 -102 -373 -194 q-3 -17 -21 -26 l-56 94 q42 11 167 49 l0 436 l-142 0 l-7 29 l277 0 l51 64 q55 -44 90 -77 q-4 -16 -27 -16 l-163 0 l0 -411 l97 32 q68 22 102 34 l5 -14 ZM963 565 q-11 -13 -43 -17 q-17 -503 -89 -578 q-44 -47 -124 -47 q2 41 -19 58 q-22 18 -100 33 l1 17 q99 -11 141 -11 q25 0 41 13 q55 50 71 526 l-192 0 q-13 -228 -83 -361 q-91 -173 -309 -279 l-13 16 q180 113 256 279 q60 131 71 345 l-172 0 l-9 30 l182 0 q2 52 2 246 l117 -12 q-3 -24 -36 -28 q-2 -138 -4 -206 l180 0 l46 48 l85 -72 Z" /><glyph glyph-name="" unicode="&#x52a0;" d="M449 672 l85 -72 q-11 -14 -42 -18 q-12 -528 -74 -599 q-43 -46 -117 -46 q0 43 -17 58 q-21 20 -89 32 l1 17 q98 -10 123 -10 q24 0 37 13 q45 43 58 547 l-131 0 q-19 -456 -243 -673 l-16 14 q166 227 179 659 l-146 0 l-8 29 l155 0 q1 37 1 214 l119 -12 q-5 -23 -36 -28 l-4 -174 l119 0 l46 49 ZM830 75 l0 567 l-167 0 l0 -567 l167 0 ZM955 648 q-12 -16 -44 -22 l0 -640 q-2 -7 -24 -18 q-25 -12 -45 -12 l-12 0 l0 90 l-167 0 l0 -75 q0 -9 -19 -18 q-21 -11 -46 -11 l-14 0 l0 767 l83 -39 l152 0 l43 51 l93 -73 Z" /><glyph glyph-name="" unicode="&#x52a9;" d="M186 124 q67 12 165 32 l0 166 l-165 0 l0 -198 ZM186 729 l0 -174 l165 0 l0 174 l-165 0 ZM351 527 l-165 0 l0 -176 l165 0 l0 176 ZM514 173 q-226 -90 -425 -157 q-6 -19 -25 -24 l-39 104 q22 3 88 14 l0 686 l86 -39 l142 0 l42 46 l84 -68 q-10 -14 -41 -20 l0 -544 l85 17 l3 -15 ZM962 557 q-10 -12 -41 -16 q-14 -500 -79 -572 q-42 -45 -119 -45 q2 41 -17 56 q-23 20 -96 33 l0 17 q118 -11 135 -11 q24 0 38 14 q48 44 62 518 l-162 0 q-11 -228 -75 -359 q-82 -168 -282 -272 l-13 16 q162 109 229 271 q54 130 62 344 l-145 0 l-8 30 l154 0 q1 39 1 248 l117 -12 q-3 -23 -35 -28 q-2 -140 -4 -208 l151 0 l44 48 l83 -72 Z" /></font>
</defs>
</svg>
